Chico Buarque - Uma Palavra[Eac Flac Cue](TntVillage)

Size 257.032 MB   24 seeders     Added 2012-07-25 21:19:37

Stream torrent
Starting‥ You need BitLord! Get it from BitLord.com
To download or stream you need BitLord. Visit them at BitLord.com
[CENTER][img]image[/img]

[img]image[/img]

[img]image[/img]

[img]image[/img]

[b]Artist: Chico Buarque
Title Of Album: Uma Palavra
Etichetta: RCA Records Label
Release date: 1995
Genre: Latin, Jazz
styles: Brazilian Jazz, World Fusion, Latin Jazz, Brazilian Traditions
Source: CD
Playing Time: 46.37
Total Size: 244,60 MB
Quality: FLAC+Cue+Log+Info+Cover[Front + Back + CD]
Bitrate: Lossless[/b]

[img]image[/img]

[b]
1.Estacao Derradeira 2:31 	
2.Morro Dois Irmaos 3:10 	
3.Ela E Dancarina 3:29 	
4.Samba E Amor 3:48 	
5.A Rosa 2:21 	
6.Joana Francesa 3:04 	
7.O Futebol 3:22 	
8.Ela Desatinou 3:49 	
9.Quem Te Viu, Quem Te Vê 3:41 	
10.Pelas Tabelas 2:50 	
11.Eu Te Amo 2:26 	
12.Valsa Brasileira 2:35 	
13.Amor Barato 2:48 	
14.Vida 3:15 	
15.Uma Palavra 3:00
[/b]

[img]image[/img]

Uma Palavra is the 19th album by Chico Buarque. Subtle jazz and classical influences draw the attention, representing an ideal way for a natural modernization of Buarque's sound, even if he would prefer to stick to traditional samba. "Estação Derradeira" reflects on the problem of violence in Rio today, with a melody that challenges the modest vocal abilities of the excellent composer. "Morro Dois Irmãos" is an extremely beautiful melody, recorded by female singers who highlight the superior expressivity of the song. The samba-choro "Ela é Dançarina" is an urban chronicle of an improbable love affair. Already recorded by Caetano Veloso, "Samba e Amor" is a wonderful song about a Bohemian composer. Other old hits reinterpreted here are the lively samba "A Rosa," the valse "Joana Francesa," the samba-canção "Ela Desatinou," the samba "Quem Te Viu, Quem Te Vê," the densely romantic "Eu Te Amo" (from the homonymous film by Arnaldo Jabor), and "Vida."  Definitely worth checking out." 

[img]image[/img]

Exact Audio Copy V1.0 beta 3 from 29. August 2011

EAC extraction logfile from 23. July 2012, 22:20

Chico Buarque / Uma Palavra

Used drive  : HL-DT-STDVDRAM GSA-T40N   Adapter: 0  ID: 0

Read mode               : Secure
Utilize accurate stream : Yes
Defeat audio cache      : Yes
Make use of C2 pointers : No

Read offset correction                      : 667
Overread into Lead-In and Lead-Out          : No
Fill up missing offset samples with silence : Yes
Delete leading and trailing silent blocks   : No
Null samples used in CRC calculations       : Yes
Used interface                              : Native Win32 interface for Win NT & 2000
Gap handling                                : Appended to previous track

Used output format              : User Defined Encoder
Selected bitrate                : 896 kBit/s
Quality                         : High
Add ID3 tag                     : No
Command line compressor         : C:\Program Files\Exact Audio Copy\FLAC\FLAC.EXE
Additional command line options : -8 -V -T "ARTIST=%artist%" -T "TITLE=%title%" -T "ALBUM=%albumtitle%" -T "DATE=%year%" -T "TRACKNUMBER=%tracknr%" -T "GENRE=%genre%" -T "COMMENT=%comment%" -T "BAND=%albuminterpret%" -T "ALBUMARTIST=%albuminterpret%" -T "COMPOSER=%composer%" %haslyrics%--tag-from-file=LYRICS="%lyricsfile%"%haslyrics% -T "DISCNUMBER=%cdnumber%" -T "TOTALDISCS=%totalcds%" -T "TOTALTRACKS=%numtracks%" %hascover%--picture="%coverfile%"%hascover% %source% -o %dest%


TOC of the extracted CD

     Track |   Start  |  Length  | Start sector | End sector 
    ---------------------------------------------------------
        1  |  0:00.00 |  2:32.57 |         0    |    11456   
        2  |  2:32.57 |  3:12.33 |     11457    |    25889   
        3  |  5:45.15 |  3:30.50 |     25890    |    41689   
        4  |  9:15.65 |  3:49.45 |     41690    |    58909   
        5  | 13:05.35 |  2:23.02 |     58910    |    69636   
        6  | 15:28.37 |  3:05.48 |     69637    |    83559   
        7  | 18:34.10 |  3:23.52 |     83560    |    98836   
        8  | 21:57.62 |  3:51.20 |     98837    |   116181   
        9  | 25:49.07 |  3:43.15 |    116182    |   132921   
       10  | 29:32.22 |  2:52.03 |    132922    |   145824   
       11  | 32:24.25 |  2:28.30 |    145825    |   156954   
       12  | 34:52.55 |  2:36.72 |    156955    |   168726   
       13  | 37:29.52 |  2:49.73 |    168727    |   181474   
       14  | 40:19.50 |  3:17.05 |    181475    |   196254   
       15  | 43:36.55 |  3:00.20 |    196255    |   209774   


Track  1

     Filename H:\MY EAC[.FLAC]\Chico Buarque - Uma Palavra\(1) Esta  o Derradeira - Chico Buarque.flac

     Pre-gap length  0:00:02.00

     Peak level 93.7 %
     Extraction speed 2.0 X
     Track quality 100.0 %
     Test CRC E517238E
     Copy CRC E517238E
     Cannot be verified as accurate (confidence 1)  [6C015C72], AccurateRip returned [54FED5B8]  (AR v2)
     Copy OK

Track  2

     Filename H:\MY EAC[.FLAC]\Chico Buarque - Uma Palavra\(2) Morro Dois Irm os - Chico Buarque.flac

     Pre-gap length  0:00:01.60

     Peak level 86.7 %
     Extraction speed 2.2 X
     Track quality 100.0 %
     Test CRC A6369786
     Copy CRC A6369786
     Cannot be verified as accurate (confidence 1)  [34C01A67], AccurateRip returned [E515D6A0]  (AR v2)
     Copy OK

Track  3

     Filename H:\MY EAC[.FLAC]\Chico Buarque - Uma Palavra\(3) Ela   Dan arina - Chico Buarque.flac

     Pre-gap length  0:00:01.64

     Peak level 79.0 %
     Extraction speed 2.4 X
     Track quality 100.0 %
     Test CRC 309D517D
     Copy CRC 309D517D
     Cannot be verified as accurate (confidence 1)  [CA4C0488], AccurateRip returned [2386313B]  (AR v2)
     Copy OK

Track  4

     Filename H:\MY EAC[.FLAC]\Chico Buarque - Uma Palavra\(4) Samba e Amor - Chico Buarque.flac

     Pre-gap length  0:00:01.60

     Peak level 82.1 %
     Extraction speed 2.6 X
     Track quality 100.0 %
     Test CRC 4854D373
     Copy CRC 4854D373
     Cannot be verified as accurate (confidence 1)  [63A7FA4A], AccurateRip returned [52362746]  (AR v2)
     Copy OK

Track  5

     Filename H:\MY EAC[.FLAC]\Chico Buarque - Uma Palavra\(5) A Rosa - Chico Buarque.flac

     Pre-gap length  0:00:01.64

     Peak level 87.7 %
     Extraction speed 2.5 X
     Track quality 100.0 %
     Test CRC CA7764B0
     Copy CRC CA7764B0
     Cannot be verified as accurate (confidence 1)  [E12FC3A2], AccurateRip returned [3CF7C97A]  (AR v2)
     Copy OK

Track  6

     Filename H:\MY EAC[.FLAC]\Chico Buarque - Uma Palavra\(6) Joana Francesa - Chico Buarque.flac

     Pre-gap length  0:00:01.66

     Peak level 75.7 %
     Extraction speed 2.8 X
     Track quality 100.0 %
     Test CRC 8461D0DB
     Copy CRC 8461D0DB
     Cannot be verified as accurate (confidence 1)  [502E9059], AccurateRip returned [E4AB560C]  (AR v2)
     Copy OK

Track  7

     Filename H:\MY EAC[.FLAC]\Chico Buarque - Uma Palavra\(7) O Futebol - Chico Buarque.flac

     Pre-gap length  0:00:01.60

     Peak level 93.2 %
     Extraction speed 2.9 X
     Track quality 100.0 %
     Test CRC 8E6C03BF
     Copy CRC 8E6C03BF
     Cannot be verified as accurate (confidence 1)  [CBC5E2B9], AccurateRip returned [86BA9343]  (AR v2)
     Copy OK

Track  8

     Filename H:\MY EAC[.FLAC]\Chico Buarque - Uma Palavra\(8) Ela Desatinou - Chico Buarque.flac

     Pre-gap length  0:00:01.60

     Peak level 94.4 %
     Extraction speed 3.1 X
     Track quality 100.0 %
     Test CRC B2FE4E98
     Copy CRC B2FE4E98
     Cannot be verified as accurate (confidence 1)  [B6CCE0AD], AccurateRip returned [C99E310B]  (AR v2)
     Copy OK

Track  9

     Filename H:\MY EAC[.FLAC]\Chico Buarque - Uma Palavra\(9) Quem te viu, quem te v  - Chico Buarque.flac

     Pre-gap length  0:00:01.60

     Peak level 82.1 %
     Extraction speed 3.2 X
     Track quality 100.0 %
     Test CRC 81393A1E
     Copy CRC 81393A1E
     Cannot be verified as accurate (confidence 1)  [FDEEF8FC], AccurateRip returned [097F65C3]  (AR v2)
     Copy OK

Track 10

     Filename H:\MY EAC[.FLAC]\Chico Buarque - Uma Palavra\(10) Pelas Tabelas - Chico Buarque.flac

     Pre-gap length  0:00:01.62

     Peak level 91.8 %
     Extraction speed 3.2 X
     Track quality 100.0 %
     Test CRC 0833CC7B
     Copy CRC 0833CC7B
     Cannot be verified as accurate (confidence 1)  [25B375D5], AccurateRip returned [F31140E4]  (AR v2)
     Copy OK

Track 11

     Filename H:\MY EAC[.FLAC]\Chico Buarque - Uma Palavra\(11) Eu te Amo - Chico Buarque.flac

     Pre-gap length  0:00:01.60

     Peak level 92.2 %
     Extraction speed 2.6 X
     Track quality 99.9 %
     Test CRC C16EEB2E
     Copy CRC C16EEB2E
     Cannot be verified as accurate (confidence 1)  [46A3FD3C], AccurateRip returned [4530C0FA]  (AR v2)
     Copy OK

Track 12

     Filename H:\MY EAC[.FLAC]\Chico Buarque - Uma Palavra\(12) Valsa Brasileira - Chico Buarque.flac

     Pre-gap length  0:00:01.64

     Peak level 83.2 %
     Extraction speed 3.2 X
     Track quality 100.0 %
     Test CRC 909B3445
     Copy CRC 909B3445
     Cannot be verified as accurate (confidence 1)  [AF18197B], AccurateRip returned [11A3BA04]  (AR v2)
     Copy OK

Track 13

     Filename H:\MY EAC[.FLAC]\Chico Buarque - Uma Palavra\(13) Amor Barato - Chico Buarque.flac

     Pre-gap length  0:00:01.62

     Peak level 89.2 %
     Extraction speed 2.9 X
     Track quality 99.9 %
     Test CRC 420B6B05
     Copy CRC 420B6B05
     Cannot be verified as accurate (confidence 1)  [D062722A], AccurateRip returned [3E97A5C9]  (AR v2)
     Copy OK

Track 14

     Filename H:\MY EAC[.FLAC]\Chico Buarque - Uma Palavra\(14) Vida - Chico Buarque.flac

     Pre-gap length  0:00:01.58

     Peak level 90.4 %
     Extraction speed 3.5 X
     Track quality 100.0 %
     Test CRC 06C5ECB3
     Copy CRC 06C5ECB3
     Cannot be verified as accurate (confidence 1)  [5B7719E8], AccurateRip returned [A9497E4E]  (AR v2)
     Copy OK

Track 15

     Filename H:\MY EAC[.FLAC]\Chico Buarque - Uma Palavra\(15) Uma Palavra - Chico Buarque.flac

     Pre-gap length  0:00:01.64

     Peak level 75.6 %
     Extraction speed 3.1 X
     Track quality 99.9 %
     Test CRC A6F23E29
     Copy CRC A6F23E29
     Cannot be verified as accurate (confidence 1)  [F94F0F4C], AccurateRip returned [2D88C347]  (AR v2)
     Copy OK


No tracks could be verified as accurate
You may have a different pressing from the one(s) in the database

No errors occurred

End of status report

==== Log checksum BCEC9CAE910790B44D98DCF50664B7C6809FE0640B0E38EA55C1687E797FE8FC ====

[img]image[/img]

[img]image[/img]
[/CENTER]
Cover/Chico Buarque - Uma Palavra - Back(1).jpg 274.637 KB
Cover/Chico Buarque - Uma Palavra - CD.jpg 186.395 KB
Cover/Chico Buarque - Uma Palavra - Front.jpg 60.943 KB
Gathering some info...

Register and log in Isohunt and see no captcha anymore!

4000 symbols left
Hash 7A70AC2B8F0652BF77C9CCECDDDE8AB04D8A1714