Vanessa Da Mata - Sim[Eac Flac Cue](TntVillage)

Size 340.785 MB   42 seeders     Added 2012-07-28 02:39:14

Stream torrent
Starting‥ You need BitLord! Get it from 1BitLord.com
To download or stream you need BitLord. Visit them at BitLord.com
[CENTER][img]image[/img]\r\n\r\n[img]image[/img]\r\n\r\n[img]image[/img]\r\n\r\n[img]image[/img]\r\n\r\n[b]\r\nArtist: Vanessa Da Mata \r\nTitle Of Album: Sim\r\nEtichetta: Sony \r\nPubblicazione: 2007\r\nGenre: Brasilian Pop/Reggae\r\nSource: CD\r\nPlaying Time: 49.16\r\nTotal Size: 324,77 MB\r\nQuality: FLAC+Cue+Log+Info+Cover[Front + Back + CD]\r\nBitrate: Lossless\r\n[/b]\r\n\r\n[img]image[/img]\r\n\r\n[b]\r\n1. \"Vermelho\" – 3:44\r\n2. \"Fugiu Com A Novela\" – 3:16\r\n3. \"Baú\" – 4:25\r\n4. \"Boa Sorte/Good Luck\" (Featuring Ben Harper) – 3:55\r\n5. \"Amado\" – 4:11\r\n6. \"Pirraça\" – 3:25\r\n7. \"Você Vai Me Destruir\" – 4:31\r\n8. \"Absurdo\" – 3:27\r\n9. \"Quem Irá Nos Proteger?\" – 3:50\r\n10. \"Ilegais\" – 3:51\r\n11. \"Quando Um Homem Tem Uma Mangueira No Quintal\"  – 2:13\r\n12. \"Meu Deus\" (Vanessa Da Mata) – 4:56\r\n13. \"Minha Herança: Uma Flor\"  – 3:33\r\n[/b]\r\n\r\n[img]image[/img]\r\n\r\n[b]\r\nVanessa da Mata is big in Brazil, and about to make her UK debut during this year's la Linea festival. She writes most of her own material and is well enough connected to call on Os Ipanemas' Wilson das Neves, Kassin (of Orquestra Imperial) and bossa nova veteran João Donato, as well as hiring Jamaican rhythm aces Sly & Robbie to help out on her reggae numbers and elsewhere. But after several listens to her undeniably pleasant third album (Yes) you'll probably struggle to recall much, let alone hum one of the tunes.\r\n\r\nThe suspenseful tone of opener Baú suggests that Sim is going to be more exciting than it really is. Ben Harper then appears on Boa Sorte – Good Luck. Of course, he twangs away on his trademark Weissenborn guitar and sings in English alongside da Mata's Portuguese. It's a likeable, catchy enough duet …but thereafter, Sim alternates between so-so reggae and MPB (Música Popular Brasileira – the catch-all phrase that covers most Brazilian pop).\r\n\r\nThe immaculate, airbrushed production by Mario C and Kassin is very easy on the ear, and the musicianship is fine (with Kassin’s guitar and synth work especially noteworthy), but they can’t hide the fact that da Mata has neither a distinctive singing voice nor writing style.\r\n\r\nAbsurdo sounds like a carefree, tropical rewrite of The Specials' smash Ghost Town, which is ironic when you consider what inspired them. Quem Irá Nos Proteger toys with the tropicália sound of the late sixties, while Quando Um Homem Tem Uma Mangueira No Quintal has a samba feel. And Meu Deus features Donato's subtle piano, a gorgeous, elaborate arrangement and exquisitely deft drumming from das Neves.\r\n\r\nDa Mata tackles the closing Minha Herança: Uma Flor on her own, with just acoustic guitar. It has a slight wisp of a melody, like a light dessert that looks great but hardly tastes of anything. Those who enjoy bland things (''Sim!'') will no doubt come back for more. But anyone who likes a bit of flavour – music with a few rough edges and more originality – will almost certainly say ''Não''.\r\n[/b]\r\n\r\n[img]image[/img]\r\n\r\n[quote]\r\nExact Audio Copy V1.0 beta 3 from 29. August 2011\r\n\r\nEAC extraction logfile from 26. July 2012, 11:17\r\n\r\nVanessa da Mata / Sim\r\n\r\nUsed drive  : HL-DT-STDVDRAM GSA-T40N   Adapter: 0  ID: 0\r\n\r\nRead mode               : Secure\r\nUtilize accurate stream : Yes\r\nDefeat audio cache      : Yes\r\nMake use of C2 pointers : No\r\n\r\nRead offset correction                      : 667\r\nOverread into Lead-In and Lead-Out          : No\r\nFill up missing offset samples with silence : Yes\r\nDelete leading and trailing silent blocks   : No\r\nNull samples used in CRC calculations       : Yes\r\nUsed interface                              : Native Win32 interface for Win NT & 2000\r\nGap handling                                : Appended to previous track\r\n\r\nUsed output format              : User Defined Encoder\r\nSelected bitrate                : 896 kBit/s\r\nQuality                         : High\r\nAdd ID3 tag                     : No\r\nCommand line compressor         : C:\\Program Files\\Exact Audio Copy\\FLAC\\FLAC.EXE\r\nAdditional command line options : -8 -V -T \"ARTIST=%artist%\" -T \"TITLE=%title%\" -T \"ALBUM=%albumtitle%\" -T \"DATE=%year%\" -T \"TRACKNUMBER=%tracknr%\" -T \"GENRE=%genre%\" -T \"COMMENT=%comment%\" -T \"BAND=%albuminterpret%\" -T \"ALBUMARTIST=%albuminterpret%\" -T \"COMPOSER=%composer%\" %haslyrics%--tag-from-file=LYRICS=\"%lyricsfile%\"%haslyrics% -T \"DISCNUMBER=%cdnumber%\" -T \"TOTALDISCS=%totalcds%\" -T \"TOTALTRACKS=%numtracks%\" %hascover%--picture=\"%coverfile%\"%hascover% %source% -o %dest%\r\n\r\n\r\nTOC of the extracted CD\r\n\r\n     Track |   Start  |  Length  | Start sector | End sector \r\n    ---------------------------------------------------------\r\n        1  |  0:00.00 |  3:43.29 |         0    |    16753   \r\n        2  |  3:43.29 |  3:15.43 |     16754    |    31421   \r\n        3  |  6:58.72 |  4:25.06 |     31422    |    51302   \r\n        4  | 11:24.03 |  3:55.45 |     51303    |    68972   \r\n        5  | 15:19.48 |  4:09.73 |     68973    |    87720   \r\n        6  | 19:29.46 |  3:24.28 |     87721    |   103048   \r\n        7  | 22:53.74 |  4:31.25 |    103049    |   123398   \r\n        8  | 27:25.24 |  3:26.17 |    123399    |   138865   \r\n        9  | 30:51.41 |  3:50.36 |    138866    |   156151   \r\n       10  | 34:42.02 |  3:51.46 |    156152    |   173522   \r\n       11  | 38:33.48 |  2:13.24 |    173523    |   183521   \r\n       12  | 40:46.72 |  4:54.70 |    183522    |   205641   \r\n       13  | 45:41.67 |  3:34.64 |    205642    |   221755   \r\n\r\n\r\nTrack  1\r\n\r\n     Filename H:\\MY EAC[.FLAC]\\Vanessa Da Mata - Sim\\(1) Vermelho - Vanessa da Mata.flac\r\n\r\n     Pre-gap length  0:00:02.00\r\n\r\n     Peak level 98.2 %\r\n     Extraction speed 2.1 X\r\n     Track quality 100.0 %\r\n     Test CRC F3CE8DA5\r\n     Copy CRC F3CE8DA5\r\n     Accurately ripped (confidence 4)  [12545FAD]  (AR v1)\r\n     Copy OK\r\n\r\nTrack  2\r\n\r\n     Filename H:\\MY EAC[.FLAC]\\Vanessa Da Mata - Sim\\(2) Fugiu com a Novela - Vanessa da Mata.flac\r\n\r\n     Peak level 98.3 %\r\n     Extraction speed 2.3 X\r\n     Track quality 100.0 %\r\n     Test CRC B9AF1E57\r\n     Copy CRC B9AF1E57\r\n     Accurately ripped (confidence 4)  [901F718F]  (AR v1)\r\n     Copy OK\r\n\r\nTrack  3\r\n\r\n     Filename H:\\MY EAC[.FLAC]\\Vanessa Da Mata - Sim\\(3) Baú - Vanessa da Mata.flac\r\n\r\n     Peak level 98.1 %\r\n     Extraction speed 2.6 X\r\n     Track quality 100.0 %\r\n     Test CRC 88B53974\r\n     Copy CRC 88B53974\r\n     Accurately ripped (confidence 4)  [E8FF5554]  (AR v1)\r\n     Copy OK\r\n\r\nTrack  4\r\n\r\n     Filename H:\\MY EAC[.FLAC]\\Vanessa Da Mata - Sim\\(4) Various Artists , Boa Sorte , Good Luck - Vanessa da Mata.flac\r\n\r\n     Peak level 98.1 %\r\n     Extraction speed 2.6 X\r\n     Track quality 100.0 %\r\n     Test CRC 0F81EBAC\r\n     Copy CRC 0F81EBAC\r\n     Accurately ripped (confidence 4)  [9DABBB91]  (AR v1)\r\n     Copy OK\r\n\r\nTrack  5\r\n\r\n     Filename H:\\MY EAC[.FLAC]\\Vanessa Da Mata - Sim\\(5) Amado - Vanessa da Mata.flac\r\n\r\n     Peak level 98.4 %\r\n     Extraction speed 2.6 X\r\n     Track quality 99.9 %\r\n     Test CRC 1FF30EFD\r\n     Copy CRC 1FF30EFD\r\n     Accurately ripped (confidence 4)  [CDE7D5FB]  (AR v1)\r\n     Copy OK\r\n\r\nTrack  6\r\n\r\n     Filename H:\\MY EAC[.FLAC]\\Vanessa Da Mata - Sim\\(6) Pirraça - Vanessa da Mata.flac\r\n\r\n     Peak level 98.1 %\r\n     Extraction speed 3.0 X\r\n     Track quality 100.0 %\r\n     Test CRC D093E920\r\n     Copy CRC D093E920\r\n     Accurately ripped (confidence 4)  [737C5715]  (AR v1)\r\n     Copy OK\r\n\r\nTrack  7\r\n\r\n     Filename H:\\MY EAC[.FLAC]\\Vanessa Da Mata - Sim\\(7) Você Vai Me Destruir - Vanessa da Mata.flac\r\n\r\n     Peak level 98.2 %\r\n     Extraction speed 3.2 X\r\n     Track quality 100.0 %\r\n     Test CRC AF802FF3\r\n     Copy CRC AF802FF3\r\n     Accurately ripped (confidence 4)  [C8E52806]  (AR v1)\r\n     Copy OK\r\n\r\nTrack  8\r\n\r\n     Filename H:\\MY EAC[.FLAC]\\Vanessa Da Mata - Sim\\(8) Absurdo - Vanessa da Mata.flac\r\n\r\n     Peak level 98.8 %\r\n     Extraction speed 3.3 X\r\n     Track quality 100.0 %\r\n     Test CRC 9FFA82D7\r\n     Copy CRC 9FFA82D7\r\n     Accurately ripped (confidence 4)  [98D3C6FE]  (AR v1)\r\n     Copy OK\r\n\r\nTrack  9\r\n\r\n     Filename H:\\MY EAC[.FLAC]\\Vanessa Da Mata - Sim\\(9) Quem Irá nos Proteger - Vanessa da Mata.flac\r\n\r\n     Peak level 98.1 %\r\n     Extraction speed 3.4 X\r\n     Track quality 100.0 %\r\n     Test CRC C946E20E\r\n     Copy CRC C946E20E\r\n     Accurately ripped (confidence 4)  [485F3C95]  (AR v1)\r\n     Copy OK\r\n\r\nTrack 10\r\n\r\n     Filename H:\\MY EAC[.FLAC]\\Vanessa Da Mata - Sim\\(10) Ilegais - Vanessa da Mata.flac\r\n\r\n     Peak level 98.4 %\r\n     Extraction speed 3.5 X\r\n     Track quality 100.0 %\r\n     Test CRC 6944AB17\r\n     Copy CRC 6944AB17\r\n     Accurately ripped (confidence 4)  [3926C32B]  (AR v1)\r\n     Copy OK\r\n\r\nTrack 11\r\n\r\n     Filename H:\\MY EAC[.FLAC]\\Vanessa Da Mata - Sim\\(11) Quando um Homem Tem uma Mangueira no Quintal - Vanessa da Mata.flac\r\n\r\n     Peak level 98.1 %\r\n     Extraction speed 3.1 X\r\n     Track quality 100.0 %\r\n     Test CRC 860512EF\r\n     Copy CRC 860512EF\r\n     Accurately ripped (confidence 4)  [25884E7A]  (AR v1)\r\n     Copy OK\r\n\r\nTrack 12\r\n\r\n     Filename H:\\MY EAC[.FLAC]\\Vanessa Da Mata - Sim\\(12) Meu Deus - Vanessa da Mata.flac\r\n\r\n     Peak level 98.1 %\r\n     Extraction speed 3.8 X\r\n     Track quality 100.0 %\r\n     Test CRC 2E5A51E7\r\n     Copy CRC 2E5A51E7\r\n     Accurately ripped (confidence 4)  [54205631]  (AR v1)\r\n     Copy OK\r\n\r\nTrack 13\r\n\r\n     Filename H:\\MY EAC[.FLAC]\\Vanessa Da Mata - Sim\\(13) Minha Herança- uma Flor - Vanessa da Mata.flac\r\n\r\n     Peak level 92.8 %\r\n     Extraction speed 3.7 X\r\n     Track quality 100.0 %\r\n     Test CRC 2E1B3BCB\r\n     Copy CRC 2E1B3BCB\r\n     Accurately ripped (confidence 4)  [F5EEBF8B]  (AR v1)\r\n     Copy OK\r\n\r\n\r\nAll tracks accurately ripped\r\n\r\nNo errors occurred\r\n\r\nEnd of status report\r\n\r\n==== Log checksum D6E509099DD3F7A91E826A8C850708885C82C1A406CEAD77839D004A3E231E75 ====\r\n[/quote]\r\n\r\n[img]image[/img]\r\n\r\n[img]image[/img][/CENTER]
Cover/CDVanessa.gif 53.71 KB
Cover/Vanessa Da Mata - Sim - Back.jpg 80.173 KB
Cover/Vanessa Da Mata - Sim - Front.jpg 84.542 KB
Gathering some info...

Register and log in Isohunt and see no captcha anymore!

4000 symbols left
Hash ADC3BD5CA81479CA243C44DE5E3230CB2BF93408