imdb
rating

4.4
The Fields

The Fields (2011)

Drama, Horror, Thriller, Mystery

Full description
quality   dvdrip x264 hd bd fullhd

The Fields

Size 1.996 GB   0 seeders     Added 2012-07-28 02:46:04

Stream torrent
Starting‥ You need BitLord! Get it from BitLord.com
To download or stream you need BitLord. Visit them at BitLord.com
[img] image[/img]\r\n\r\nWith: Miles Williams, Tara Reid and Cloris Leachman\r\n\r\nHet is 1973. In een klein dorpje in Pennsylvania woont een jongetje met zijn familie op een boerderij, omgeven door korenvelden. Het leven lijkt rustig te verlopen totdat er een vreemde aanwezigheid in de korenvelden wordt waargenomen.\r\n\r\nTells the story of a young boy and his family who are terrorized by an unseen presence. \r\n\r\nhttp://www.imdb.com/title/tt1401236\r\n\r\n[COLOR=#3300FF]------------------------ Dutch Friends ------------------------\r\n---------------------------------------------------------------\r\n- Bezoek ook eens mijn vrienden op:  http://www.Film-Test.nl --\r\n----- voor mijn Nederlandse Sync. ondertitels ---- en meer ----\r\n------- http://www.Film-Test.nl ---- voor Films en meer -------\r\n---------------------------------------------------------------[/COLOR]\r\n\r\nGeneral:\r\n\r\nComplete name                    : The Fields.avi\r\nFormat                           : AVI\r\nFormat/Info                      : Audio Video Interleave\r\nFile size                        : 1.86 GiB\r\nDuration                         : 1h 38mn\r\nOverall bit rate                 : 2 686 Kbps\r\n\r\nVideo:\r\n\r\nFormat                           : MPEG-4 Visual\r\nFormat profile                   : Simple@L3\r\nFormat settings, BVOP            : No\r\nFormat settings, QPel            : No\r\nFormat settings, GMC             : No warppoints\r\nFormat settings, Matrix          : Default (H.263)\r\nCodec ID                         : XVID\r\nCodec ID/Hint                    : XviD\r\nDuration                         : 1h 38mn\r\nBit rate                         : 2 228 Kbps\r\nWidth                            : 704 pixels\r\nHeight                           : 396 pixels\r\nDisplay aspect ratio             : 16:9\r\nFrame rate                       : 23.976 fps\r\nColor space                      : YUV\r\nChroma subsampling               : 4:2:0\r\nBit depth                        : 8 bits\r\nScan type                        : Progressive\r\nCompression mode                 : Lossy\r\nBits/(Pixel*Frame)               : 0.333\r\nStream size                      : 1.54 GiB (83%)\r\nWriting library                  : XviD 1.1.2 (UTC 2006-11-01)\r\n\r\nAudio:\r\n\r\nFormat                           : AC-3\r\nFormat/Info                      : Audio Coding 3\r\nMode extension                   : CM (complete main)\r\nCodec ID                         : 2000\r\nDuration                         : 1h 38mn\r\nBit rate mode                    : Constant\r\nBit rate                         : 448 Kbps\r\nChannel(s)                       : 6 channels\r\nChannel positions                : Front: L C R, Side: L R, LFE\r\nSampling rate                    : 48.0 KHz\r\nBit depth                        : 16 bits\r\nCompression mode                 : Lossy\r\nStream size                      : 317 MiB (17%)\r\nAlignment                        : Aligned on interleaves\r\nInterleave, duration             : 32 ms (0.77 video frame)\r\nInterleave, preload duration     : 192 ms
Cover/The Fields.jpg 2.82 MB
Cover/www.Film-Test.nl.JPG 34.175 KB
The Fields.avi 1.993 GB
Gathering some info...

Register and log in Isohunt and see no captcha anymore!

4000 symbols left
Hash CA06FF22F7F786110F48CDA2186B46CACCDA0EF4

Related torrents for "The Fields"