imdb
rating

6.6
The Sisterhood of the Traveling Pants

The Sisterhood of the Traveling Pants (2005)

Adventure, Comedy, Drama, Family

Full description
quality   dvdrip x264 hdtv hd

The Sisterhood of the Traveling Pants

Size 2.017 GB   0 seeders     Added 2012-07-30 02:51:18

Stream torrent
Starting‥ You need BitLord! Get it from BitLord.com
To download or stream you need BitLord. Visit them at BitLord.com
[img] image[/img]\r\n\r\nWith: Amber Tamblyn, Blake Lively and Alexis Bledel\r\n\r\nVier beste vriendinnen worden van elkaar gescheiden en op hun laatste winkeldag samen vinden ze een spijkerbroek die ieder van hen perfect zit. Ze besluiten om deze \"magische\" broek te gebruiken als een soort bindmiddel voor de maanden dat ze elkaar niet zien, door elke week een ander de broek te laten dragen. Ondanks dat ze ver van elkaar verwijderd zijn, ervaren ze een zomer die ze nooit meer zullen vergeten.\r\n\r\nFour best girlfriends hatch a plan to stay connected with one another as their lives start off in different directions: they pass around a pair of secondhand jeans that fits each of their bodies perfectly. \r\n\r\nhttp://www.imdb.com/title/tt0403508\r\n\r\n[COLOR=#3300FF]------------------------ Dutch Friends ------------------------\r\n---------------------------------------------------------------\r\n- Bezoek ook eens mijn vrienden op:  http://www.Film-Test.nl --\r\n----- voor mijn Nederlandse Sync. ondertitels ---- en meer ----\r\n------- http://www.Film-Test.nl ---- voor Films en meer -------\r\n---------------------------------------------------------------[/COLOR]\r\n\r\nGeneral:\r\n\r\nComplete name                    : The Sisterhood of the Traveling Pants\\The Sisterhood of the Traveling Pants.avi\r\nFormat                           : AVI\r\nFormat/Info                      : Audio Video Interleave\r\nFile size                        : 1.88 GiB\r\nDuration                         : 1h 53mn\r\nOverall bit rate                 : 2 363 Kbps\r\n\r\nVideo:\r\n\r\nFormat                           : MPEG-4 Visual\r\nFormat profile                   : Simple@L3\r\nFormat settings, BVOP            : No\r\nFormat settings, QPel            : No\r\nFormat settings, GMC             : No warppoints\r\nFormat settings, Matrix          : Default (H.263)\r\nCodec ID                         : XVID\r\nCodec ID/Hint                    : XviD\r\nDuration                         : 1h 53mn\r\nBit rate                         : 1 968 Kbps\r\nWidth                            : 720 pixels\r\nHeight                           : 304 pixels\r\nDisplay aspect ratio             : 2.35:1\r\nFrame rate                       : 25.000 fps\r\nColor space                      : YUV\r\nChroma subsampling               : 4:2:0\r\nBit depth                        : 8 bits\r\nScan type                        : Progressive\r\nCompression mode                 : Lossy\r\nBits/(Pixel*Frame)               : 0.360\r\nStream size                      : 1.56 GiB (83%)\r\nWriting library                  : XviD 1.1.2 (UTC 2006-11-01)\r\n\r\nAudio:\r\n\r\nFormat                           : AC-3\r\nFormat/Info                      : Audio Coding 3\r\nMode extension                   : CM (complete main)\r\nCodec ID                         : 2000\r\nDuration                         : 1h 53mn\r\nBit rate mode                    : Constant\r\nBit rate                         : 384 Kbps\r\nChannel(s)                       : 6 channels\r\nChannel positions                : Front: L C R, Side: L R, LFE\r\nSampling rate                    : 48.0 KHz\r\nBit depth                        : 16 bits\r\nCompression mode                 : Lossy\r\nStream size                      : 313 MiB (16%)\r\nAlignment                        : Aligned on interleaves\r\nInterleave, duration             : 32 ms (0.80 video frame)
Cover/The Sisterhood of the Traveling Pants.jpg 92.8 KB
Cover/www.Film-Test.nl.JPG 34.175 KB
The Sisterhood of the Traveling Pants.avi 2.017 GB
Gathering some info...

Register and log in Isohunt and see no captcha anymore!

4000 symbols left
Hash C1BD028320659A17C984E3C7FA3789D336DE7BD9

Related torrents for "The Sisterhood of the Traveling Pants"