Manowar - The Lord Of Steel (2012) [MCA 01247-2] FLAC

Size 360.498 MB   2 seeders     Added 2012-08-01 02:42:01

Stream torrent
Starting‥ You need BitLord! Get it from 1BitLord.com
To download or stream you need BitLord. Visit them at BitLord.com
Manowar - The Lord of Steel

EAC, LOG, CUE

image

Exact Audio Copy V1.0 beta 3 from 29. August 2011

EAC extraction logfile from 6. July 2012, 0:15

Manowar / The Lord Of Steel - Hammer Edition

Used drive : HL-DT-STDVDRAM GH22NS90 Adapter: 2 ID: 1

Read mode : Secure
Utilize accurate stream : Yes
Defeat audio cache : Yes
Make use of C2 pointers : No

Read offset correction : 6
Overread into Lead-In and Lead-Out : No
Fill up missing offset samples with silence : Yes
Delete leading and trailing silent blocks : No
Null samples used in CRC calculations : Yes
Used interface : Native Win32 interface for Win NT & 2000
Gap handling : Appended to previous track

Used output format : User Defined Encoder
Selected bitrate : 256 kBit/s
Quality : High
Add ID3 tag : No
Command line compressor : C:\\Program Files (x86)\\Exact Audio Copy\\Flac\\flac.exe
Additional command line options : -8 -V -T "ARTIST=%artist%" -T "TITLE=%title%" -T "ALBUM=%albumtitle%" -T "DATE=%year%" -T "TRACKNUMBER=%tracknr%" -T "TOTALTRACKS=%numtracks%" -T "GENRE=%genre%" -T "ALBUMARTIST=%albumartist%" -T "ALBUM ARTIST=%albumartist%" -T "COMMENT=EAC Secure Mode, Test & Copy, AccurateRip, FLAC -8" %source%


TOC of the extracted CD

Track | Start | Length | Start sector | End sector
---------------------------------------------------------
1 | 0:00.00 | 4:08.06 | 0 | 18605
2 | 4:08.06 | 4:46.36 | 18606 | 40091
3 | 8:54.42 | 5:47.03 | 40092 | 66119
4 | 14:41.45 | 6:10.09 | 66120 | 93878
5 | 20:51.54 | 3:49.18 | 93879 | 111071
6 | 24:40.72 | 6:58.29 | 111072 | 142450
7 | 31:39.26 | 3:10.06 | 142451 | 156706
8 | 34:49.32 | 4:57.55 | 156707 | 179036
9 | 39:47.12 | 4:00.68 | 179037 | 197104
10 | 43:48.05 | 3:58.56 | 197105 | 215010


Track 1

Filename C:\\Users\\Chris\\Downloads\\2012 - The Lord Of Steel\\01 The Lord Of Steel.wav

Pre-gap length 0:00:02.00

Peak level 99.9 %
Extraction speed 1.1 X
Track quality 100.0 %
Test CRC C80DC0EE
Copy CRC C80DC0EE
Track not present in AccurateRip database
Copy OK

Track 2

Filename C:\\Users\\Chris\\Downloads\\2012 - The Lord Of Steel\\02 Manowarriors.wav

Pre-gap length 0:00:01.56

Peak level 99.9 %
Extraction speed 1.1 X
Track quality 99.9 %
Test CRC 525D2FBC
Copy CRC 525D2FBC
Track not present in AccurateRip database
Copy OK

Track 3

Filename C:\\Users\\Chris\\Downloads\\2012 - The Lord Of Steel\\03 Born In A Grave.wav

Pre-gap length 0:00:02.01

Peak level 99.9 %
Extraction speed 1.4 X
Track quality 100.0 %
Test CRC 1003505B
Copy CRC 1003505B
Track not present in AccurateRip database
Copy OK

Track 4

Filename C:\\Users\\Chris\\Downloads\\2012 - The Lord Of Steel\\04 Righteous Glory.wav

Pre-gap length 0:00:02.21

Peak level 99.9 %
Extraction speed 1.5 X
Track quality 100.0 %
Test CRC 8A656E55
Copy CRC 8A656E55
Track not present in AccurateRip database
Copy OK

Track 5

Filename C:\\Users\\Chris\\Downloads\\2012 - The Lord Of Steel\\05 Touch The Sky.wav

Pre-gap length 0:00:01.74

Peak level 99.9 %
Extraction speed 1.6 X
Track quality 100.0 %
Test CRC D87C17BE
Copy CRC D87C17BE
Track not present in AccurateRip database
Copy OK

Track 6

Filename C:\\Users\\Chris\\Downloads\\2012 - The Lord Of Steel\\06 Black List.wav

Pre-gap length 0:00:01.71

Peak level 99.9 %
Extraction speed 1.8 X
Track quality 100.0 %
Test CRC 02FD4B55
Copy CRC 02FD4B55
Track not present in AccurateRip database
Copy OK

Track 7

Filename C:\\Users\\Chris\\Downloads\\2012 - The Lord Of Steel\\07 Expendable.wav

Pre-gap length 0:00:03.02

Peak level 99.9 %
Extraction speed 1.7 X
Track quality 100.0 %
Test CRC 98AC751A
Copy CRC 98AC751A
Track not present in AccurateRip database
Copy OK

Track 8

Filename C:\\Users\\Chris\\Downloads\\2012 - The Lord Of Steel\\08 El Gringo.wav

Pre-gap length 0:00:01.10

Peak level 99.1 %
Extraction speed 1.9 X
Track quality 100.0 %
Test CRC 854DF3E9
Copy CRC 854DF3E9
Track not present in AccurateRip database
Copy OK

Track 9

Filename C:\\Users\\Chris\\Downloads\\2012 - The Lord Of Steel\\09 Annihilation.wav

Pre-gap length 0:00:01.01

Peak level 99.9 %
Extraction speed 1.9 X
Track quality 100.0 %
Test CRC 3EA6BA92
Copy CRC 3EA6BA92
Track not present in AccurateRip database
Copy OK

Track 10

Filename C:\\Users\\Chris\\Downloads\\2012 - The Lord Of Steel\\10 Hail Kill And Die.wav

Pre-gap length 0:00:01.24

Peak level 99.9 %
Extraction speed 1.8 X
Track quality 99.9 %
Test CRC 76C99A6D
Copy CRC 76C99A6D
Track not present in AccurateRip database
Copy OK


None of the tracks are present in the AccurateRip database

No errors occurred

End of status report

---- CUETools DB Plugin V2.1.3

[CTDB TOCID: AgSgy7wCHIY0LvaC1qtzROwwah0-] found, Submit result: AgSgy7wCHIY0LvaC1qtzROwwah0- has been confirmed
[6b20759c] (1/1) Accurately ripped


==== Log checksum 32F649C582D7AE7FAD9878A592B27F5BFAB642135E951A1184BF6AAEB2F12579 ====


06 Black List.flac 48.498 MB
04 Righteous Glory.flac 41.788 MB
03 Born In A Grave.flac 39.45 MB
Gathering some info...

Register and log in Isohunt and see no captcha anymore!

4000 symbols left
Hash A5B3401E071114ED753ECA5075B8B07DE850A725

Related torrents for "Manowar - The Lord Of Steel (2012) [MCA 01247-2] FLAC"

Torrent search:

lossless lossless 2012