imdb
rating

7.2
War Horse

War Horse (2011)

Drama, War

Full description
quality   dvdrip screener telesync bd

War Horse 2011 DVDrip English Klam

Size 2.256 GB   0 seeders     Added 2012-08-01 02:47:07

Stream torrent
Starting‥ You need BitLord! Get it from BitLord.com
To download or stream you need BitLord. Visit them at BitLord.com
[img] image[/img]\r\n\r\nWith: Jeremy Irvine, Emily Watson en David Thewlis\r\n\r\n'War Horse' volgt een jongeman genaamd Albert (Jeremy Irvine) en zijn paard Joey. Hun band wordt verbroken wanneer Joey verkocht wordt aan het leger en meegenomen wordt voor het gebruik in de Eerste Wereldoorlog. Ondanks dat Albert nog te jong is om zich in te schrijven voor het leger, besluit hij toch naar Frankrijk te gaan om zijn vriend te redden.\r\n\r\nYoung Albert enlists to serve in World War I after his beloved horse is sold to the cavalry. Albert's hopeful journey takes him out of England and across Europe as the war rages on. \r\n\r\nhttp://www.imdb.com/title/tt1568911	http://bayimg.com/CAnOgaaDE\r\n\r\n[COLOR=#33CC00]------------------------ Dutch Friends ------------------------\r\n---------------------------------------------------------------\r\n- Bezoek ook eens mijn vrienden op:  http://www.Film-Test.nl --\r\n----- voor mijn Nederlandse Sync. ondertitels ---- en meer ----\r\n------- http://www.Film-Test.nl ---- voor Films en meer -------\r\n---------------------------------------------------------------[/COLOR]\r\n\r\nGeneral:\r\n\r\nComplete name                    : War Horse\\War Horse.avi\r\nFormat                           : AVI\r\nFormat/Info                      : Audio Video Interleave\r\nFile size                        : 2.10 GiB\r\nDuration                         : 2h 20mn\r\nOverall bit rate                 : 2 139 Kbps\r\n\r\nVideo:\r\n\r\nFormat                           : MPEG-4 Visual\r\nFormat profile                   : Simple@L3\r\nFormat settings, BVOP            : No\r\nFormat settings, QPel            : No\r\nFormat settings, GMC             : No warppoints\r\nFormat settings, Matrix          : Default (H.263)\r\nCodec ID                         : XVID\r\nCodec ID/Hint                    : XviD\r\nDuration                         : 2h 20mn\r\nBit rate                         : 1 744 Kbps\r\nWidth                            : 720 pixels\r\nHeight                           : 304 pixels\r\nDisplay aspect ratio             : 2.35:1\r\nFrame rate                       : 25.000 fps\r\nColor space                      : YUV\r\nChroma subsampling               : 4:2:0\r\nBit depth                        : 8 bits\r\nScan type                        : Progressive\r\nBits/(Pixel*Frame)               : 0.319\r\nStream size                      : 1.71 GiB (82%)\r\nWriting library                  : XviD 1.1.2 (UTC 2006-11-01)\r\n\r\nAudio:\r\n\r\nFormat                           : AC-3\r\nFormat/Info                      : Audio Coding 3\r\nMode extension                   : CM (complete main)\r\nCodec ID                         : 2000\r\nDuration                         : 2h 20mn\r\nBit rate mode                    : Constant\r\nBit rate                         : 384 Kbps\r\nChannel(s)                       : 6 channels\r\nChannel positions                : Front: L C R, Side: L R, LFE\r\nSampling rate                    : 48.0 KHz\r\nBit depth                        : 16 bits\r\nStream size                      : 386 MiB (18%)\r\nAlignment                        : Aligned on interleaves\r\nInterleave, duration             : 32 ms (0.80 video frame)\r\nInterleave, preload duration     : 224 ms
War Horse.avi 2.256 GB
Cover/War Horse.jpg 51.465 KB
www.Film-Test.nl.JPG 34.175 KB
Gathering some info...

Register and log in Isohunt and see no captcha anymore!

4000 symbols left
Hash CDF1640ED73B4F9E9A00871CB4459B47609852B4

Related torrents for "War Horse 2011 DVDrip English Klam"

Torrent search:

dvdrip english 2011