imdb
rating

5.8
96 Minutes

96 Minutes (2011)

Drama, Thriller

Full description
quality   bd dvdrip x264 hd dvdr

96 Minutes

Size 1.393 GB   0 seeders     Added 2012-08-01 02:47:28

Stream torrent
Starting‥ You need BitLord! Get it from 1BitLord.com
To download or stream you need BitLord. Visit them at BitLord.com
[img] image[/img]\r\n\r\nWith: Brittany Snow, Christian Serratos en Evan Ross\r\n\r\nGeïnspireerd op ware gebeurtenissen vertelt de film het verhaal van vier jonge levens die samenkomen in één schokkende gebeurtenis. We volgen vier verschillende kinderen en de schijnbaar onschuldige beslissingen die ze nemen, die hun leven voor altijd veranderen. Zonder enige begeleiding van een volwassene zijn ze aan hun lot overgelaten. Ze proberen niet alleen te overleven maar ook de complexe realiteit van de wereld om ze heen te doorstaan.\r\n\r\nThe story of 4 lives slammed together in a shocking moment. Intercutting between a carjacking and the separate stories of the 4 kids in Atlanta, we watch as they hurtle toward a life-changing end.\r\n\r\nhttp://www.imdb.com/title/tt1641385\r\n\r\n[COLOR=#3300FF]------------------------ Dutch Friends ------------------------\r\n---------------------------------------------------------------\r\n- Bezoek ook eens mijn vrienden op:  http://www.Film-Test.nl --\r\n----- voor mijn Nederlandse Sync. ondertitels ---- en meer ----\r\n------- http://www.Film-Test.nl ---- voor Films en meer -------\r\n---------------------------------------------------------------[/COLOR]\r\n\r\nGeneral:\r\n\r\nComplete name                    : 96 Minutes\\96 Minutes.avi\r\nFormat                           : AVI\r\nFormat/Info                      : Audio Video Interleave\r\nFile size                        : 1.30 GiB\r\nDuration                         : 1h 34mn\r\nOverall bit rate                 : 1 959 Kbps\r\n\r\nVideo:\r\n\r\nFormat                           : MPEG-4 Visual\r\nFormat profile                   : Simple@L3\r\nFormat settings, BVOP            : No\r\nFormat settings, QPel            : No\r\nFormat settings, GMC             : No warppoints\r\nFormat settings, Matrix          : Default (H.263)\r\nCodec ID                         : XVID\r\nCodec ID/Hint                    : XviD\r\nDuration                         : 1h 34mn\r\nBit rate                         : 1 501 Kbps\r\nWidth                            : 720 pixels\r\nHeight                           : 304 pixels\r\nDisplay aspect ratio             : 2.35:1\r\nFrame rate                       : 23.976 fps\r\nColor space                      : YUV\r\nChroma subsampling               : 4:2:0\r\nBit depth                        : 8 bits\r\nScan type                        : Progressive\r\nCompression mode                 : Lossy\r\nBits/(Pixel*Frame)               : 0.286\r\nStream size                      : 1 018 MiB (77%)\r\nWriting library                  : XviD 1.1.2 (UTC 2006-11-01)\r\n\r\nAudio:\r\n\r\nFormat                           : AC-3\r\nFormat/Info                      : Audio Coding 3\r\nMode extension                   : CM (complete main)\r\nCodec ID                         : 2000\r\nDuration                         : 1h 34mn\r\nBit rate mode                    : Constant\r\nBit rate                         : 448 Kbps\r\nChannel(s)                       : 6 channels\r\nChannel positions                : Front: L C R, Side: L R, LFE\r\nSampling rate                    : 48.0 KHz\r\nBit depth                        : 16 bits\r\nCompression mode                 : Lossy\r\nStream size                      : 304 MiB (23%)\r\nAlignment                        : Aligned on interleaves\r\nInterleave, duration             : 32 ms (0.77 video frame)\r\nInterleave, preload duration     : 320 ms
Cover/96 Minutes.jpg 80.416 KB
Cover/www.Film-Test.nl.JPG 34.175 KB
96 Minutes.avi 1.393 GB
Gathering some info...

Register and log in Isohunt and see no captcha anymore!

4000 symbols left
Hash 12D8771A3C9E3248660717DAF13E64E4AE862819

Related torrents for "96 Minutes"