imdb
rating

4.6
ATM

ATM (2012)

Horror, Thriller

Full description
quality   dvdrip hd x264 screener dvdr

ATM

Size 1.458 GB   0 seeders     Added 2012-08-01 02:50:18

Stream torrent
Starting‥ You need BitLord! Get it from 1BitLord.com
To download or stream you need BitLord. Visit them at BitLord.com
[img] image[/img]\r\n\r\nWith: Alice Eve, Josh Peck and Brian Geraghty\r\n\r\nDavid Hargrove en Emily Brandt verlaten samen het kerstfeest op hun bedrijf. Hun geïmproviseerde eerste date krijgt echter een onverwachte wending wanneer hun collega Corey vraagt om nog even te stoppen bij de geldautomaat. Wat een simpele actie zou moeten zijn verandert in een wanhopige strijd om te overleven wanneer er een onbekende man opduikt. Met de winterse temperaturen die onder het vriespunt duiken en met de ochtendzon nog ver weg, hebben ze geen andere keus dan het dodelijke kat-en-muisspel van de man mee te spelen.\r\n\r\nOn a late night visit to an ATM, three co-workers end up in a desperate fight for their lives when they become trapped by an unknown man. \r\n\r\nhttp://www.imdb.com/title/tt1603257\r\n\r\n[COLOR=#3300FF]------------------------ Dutch Friends ------------------------\r\n---------------------------------------------------------------\r\n- Bezoek ook eens mijn vrienden op:  http://www.Film-Test.nl --\r\n----- voor mijn Nederlandse Sync. ondertitels ---- en meer ----\r\n------- http://www.Film-Test.nl ---- voor Films en meer -------\r\n---------------------------------------------------------------[/COLOR]\r\n\r\nGeneral:\r\n\r\nComplete name                    : ATM\\ATM.avi\r\nFormat                           : AVI\r\nFormat/Info                      : Audio Video Interleave\r\nFile size                        : 1.36 GiB\r\nDuration                         : 1h 26mn\r\nOverall bit rate                 : 2 245 Kbps\r\n\r\nVideo:\r\n\r\nFormat                           : MPEG-4 Visual\r\nFormat profile                   : Simple@L3\r\nFormat settings, BVOP            : No\r\nFormat settings, QPel            : No\r\nFormat settings, GMC             : No warppoints\r\nFormat settings, Matrix          : Default (H.263)\r\nCodec ID                         : XVID\r\nCodec ID/Hint                    : XviD\r\nDuration                         : 1h 26mn\r\nBit rate                         : 1 788 Kbps\r\nWidth                            : 688 pixels\r\nHeight                           : 368 pixels\r\nDisplay aspect ratio             : 1.870\r\nFrame rate                       : 25.000 fps\r\nColor space                      : YUV\r\nChroma subsampling               : 4:2:0\r\nBit depth                        : 8 bits\r\nScan type                        : Progressive\r\nCompression mode                 : Lossy\r\nBits/(Pixel*Frame)               : 0.282\r\nStream size                      : 1.08 GiB (80%)\r\nWriting library                  : XviD 1.2.0.dev47 (UTC 2006-11-01)\r\n\r\nAudio:\r\n\r\nFormat                           : AC-3\r\nFormat/Info                      : Audio Coding 3\r\nMode extension                   : CM (complete main)\r\nCodec ID                         : 2000\r\nDuration                         : 1h 26mn\r\nBit rate mode                    : Constant\r\nBit rate                         : 448 Kbps\r\nChannel(s)                       : 6 channels\r\nChannel positions                : Front: L C R, Side: L R, LFE\r\nSampling rate                    : 48.0 KHz\r\nBit depth                        : 16 bits\r\nCompression mode                 : Lossy\r\nStream size                      : 277 MiB (20%)\r\nAlignment                        : Split accross interleaves\r\nInterleave, duration             : 40 ms (1.00 video frame)\r\nInterleave, preload duration     : 500 ms
Cover/ATM.jpg 71.281 KB
Cover/www.Film-Test.nl.JPG 34.175 KB
ATM.avi 1.458 GB
Gathering some info...

Register and log in Isohunt and see no captcha anymore!

4000 symbols left
Hash 42CF1D50C374C70A7B011FCEEAFED3D6C77E68BE

Related torrents for "ATM"