imdb
rating

6.2
Friends with Kids

Friends with Kids (2011)

Comedy, Drama, Romance

Full description

Friends With Kids 2011 DVDrip English Skandale

Size 1.673 GB   0 seeders     Added 2012-08-01 02:53:04

Stream torrent
Starting‥ You need BitLord! Get it from BitLord.com
To download or stream you need BitLord. Visit them at BitLord.com
[IMG]image[/IMG]\r\n\r\nmet Adam Scott, Jennifer Westfeldt en Maya Rudolph\r\n\r\nTwee goede vrienden van in de dertig observeren koppels uit hun kennissenkring die kinderen hebben en de tol die dit geëist heeft. Ze besluiten om die stress te vermijden door eerst een kind te nemen en daarna met andere mensen te gaan daten.\r\n\r\n\r\nTwo best friends decide to have a child together while keeping their relationship platonic, so they can avoid the toll kids can take on romantic relationships.\r\n\r\nhttp://www.imdb.com/title/tt1720616/\r\n\r\n\r\n[COLOR=#3300FF]------------------------ Dutch Friends ------------------------\r\n---------------------------------------------------------------\r\n- Bezoek ook eens mijn vrienden op:  http://www.Film-Test.nl --\r\n----- voor mijn Nederlandse Sync. ondertitels ---- en meer ----\r\n------- http://www.Film-Test.nl ---- voor Films en meer -------\r\n---------------------------------------------------------------[/COLOR]\r\n\r\nGeneral\r\nComplete name                            : Friends With Kids 2011.avi\r\nFormat                                   : AVI\r\nFormat/Info                              : Audio Video Interleave\r\nFile size                                : 1.55 GiB\r\nDuration                                 : 1h 47mn\r\nOverall bit rate                         : 2 075 Kbps\r\n\r\nVideo\r\nID                                       : 0\r\nFormat                                   : MPEG-4 Visual\r\nFormat profile                           : Simple@L3\r\nFormat settings, BVOP                    : No\r\nFormat settings, QPel                    : No\r\nFormat settings, GMC                     : No warppoints\r\nFormat settings, Matrix                  : Default (H.263)\r\nCodec ID                                 : XVID\r\nCodec ID/Hint                            : XviD\r\nDuration                                 : 1h 47mn\r\nSource duration                          : 1h 47mn\r\nBit rate                                 : 1 617 Kbps\r\nWidth                                    : 720 pixels\r\nHeight                                   : 304 pixels\r\nDisplay aspect ratio                     : 2.35:1\r\nFrame rate                               : 23.976 fps\r\nColor space                              : YUV\r\nChroma subsampling                       : 4:2:0\r\nBit depth                                : 8 bits\r\nScan type                                : Progressive\r\nCompression mode                         : Lossy\r\nBits/(Pixel*Frame)                       : 0.308\r\nStream size                              : 1.21 GiB (78%)\r\nWriting library                          : XviD 1.1.2 (UTC 2006-11-01)\r\n\r\nAudio\r\nID                                       : 1\r\nFormat                                   : AC-3\r\nFormat/Info                              : Audio Coding 3\r\nMode extension                           : CM (complete main)\r\nFormat settings, Endianness              : Big\r\nCodec ID                                 : 2000\r\nDuration                                 : 1h 47mn\r\nBit rate mode                            : Constant\r\nBit rate                                 : 448 Kbps\r\nChannel(s)                               : 6 channels\r\nChannel positions                        : Front: L C R, Side: L R, LFE\r\nSampling rate                            : 48.0 KHz\r\nBit depth                                : 16 bits\r\nCompression mode                         : Lossy\r\nStream size                              : 344 MiB (22%)\r\nAlignment                                : Aligned on interleaves\r\nInterleave, duration                     : 32 ms (0.77 video frame)\r\nInterleave, preload duration             : 896 ms
Friends With Kids 2011.avi 1.67 GB
Cover/Friends_With_Kids_2011_R1_CUSTOM-front.jpg 3.759 MB
flyer.jpg 33.678 KB
Gathering some info...

Register and log in Isohunt and see no captcha anymore!

4000 symbols left
Hash 357A59B08B2A73A0A03218582D9FD5A2A815CC10

Related torrents for "Friends With Kids 2011 DVDrip English Skandale"

Torrent search:

dvdrip english 2011