The Dark Knight Rises XviD 2HD

Size 2.147 GB   0 seeders     Added 2012-08-02 19:07:29

To download or stream you need BitLord. Visit them at BitLord.com
STATS:

Video
ID                               : 0
Format                           : MPEG-4 Visual
Format profile                   : Advanced Simple@L5
Format settings, BVOP            : 2
Format settings, QPel            : No
Format settings, GMC             : No warppoints
Format settings, Matrix          : Default (MPEG)
Muxing mode                      : Packed bitstream
Codec ID                         : XVID
Codec ID/Hint                    : XviD
Duration                         : 2h 36mn
Bit rate                         : 1 821 Kbps
Width                            : 720 pixels
Height                           : 288 pixels
Display aspect ratio             : 2.500
Frame rate                       : 29.970 fps
Color space                      : YUV
Chroma subsampling               : 4:2:0
Bit depth                        : 8 bits
Scan type                        : Progressive
Compression mode                 : Lossy
Bits/(Pixel*Frame)               : 0.293
Stream size                      : 1.99 GiB (93%)
Writing library                  : XviD 64

Audio
ID                               : 1
Format                           : MPEG Audio
Format version                   : Version 1
Format profile                   : Layer 3
Mode                             : Joint stereo
Mode extension                   : MS Stereo
Codec ID                         : 55
Codec ID/Hint                    : MP3
Duration                         : 2h 36mn
Bit rate mode                    : Constant
Bit rate                         : 128 Kbps
Channel(s)                       : 2 channels
Sampling rate                    : 44.1 KHz
Compression mode                 : Lossy
Stream size                      : 143 MiB (7%)
Alignment                        : Split accross interleaves
Interleave, duration             : 33 ms (1.00 video frame)
Interleave, preload duration     : 500 ms
The Dark Knight Rises.XviD.2HD/The Dark Knight Rises.XviD.2HD/The Dark Knight Rises.XviD.2HD.rar 2.147 GB
The Dark Knight Rises.XviD.2HD/The Dark Knight Rises.XviD.2HD.nfo 614 B
The Dark Knight Rises.XviD.2HD/The Dark Knight Rises.XviD.2HD/read.txt 614 B
Gathering some info...

Register and log in Isohunt and see no captcha anymore!

4000 symbols left
Hash 7f6e93d7acd7f8c23f77d83d7426b4030ef752c5