Gal Costa - Legal [Eac Flac Cue](TntVillage)

Size 191.666 MB   7 seeders     Added 2012-08-04 02:23:15

Stream torrent
Starting‥ You need BitLord! Get it from BitLord.com
To download or stream you need BitLord. Visit them at BitLord.com
[img]image[/img]

[img]image[/img]

[img]image[/img]

[img]image[/img]

[b]
Artist: Gal Costa
Title Of Album: Legal
Etichetta: Philips
Year: 1970
Genre: MPB
Source: CD
Playing Time: 32.35
Total Size: 182,48 MB
Quality: FLAC+Cue+Log+Info+Cover[Front + Back + CD]
Bitrate: Lossless
[/b]

[img]image[/img]

[b]
01 - Eu Sou Terrível - 2:32
02 - Língua do P - 3:41
03 - Love, Try and Die - 2:25
04 - Mini-Mistério - 4:19
05 - Acauã - 2:51
06 - Hotel das Estrelas - 4:25
07 - Deixa Sangrar (Carnaval 1971) - 2:54
08 - The Archaic Lonely Star Blues - 3:06
09 - London, London - 4:03
10 - Falsa Baiana - 2:13
[/b]

[img]image[/img]

[b]
On Legal, the follow-up to her extremely bombastic self-titled release, Gal Costa retains only some of the fire and experimentation, instead opting to return to more accessible and subdued arrangements. This was likely a wise decision on Costa's part, even though the reckless abandon she displayed on Gal Costa was astonishing, for her to recklessly continue flailing down that path would've certainly led to her burning out or completely alienating the public she was trying to inform. Furthermore, Legal is a much more diverse record than her previous records, displaying influences from American blues-rock, R&B, and soul with winding, organ-driven rock closer to the sound Milton Nascimento would later latch onto and nurture with his Clube da Esquina albums. This diversity is welcome and served as a setup for Costa to further explore complex arrangements on her later records. Costa's lovely voice flourishes on the jazzy churning of "Língua Do P," the emotional groove of "Mini-Misterio" as well as the gorgeous version of Caetano Veloso's "London, London" -- certainly included as a reminder to the Brazilian public of her comrades (Veloso and Gilberto Gil) who were still exiled for upending politics through their radical music. The only questionable track on the album is "Love, Try, and Die," which has a fun, bouncy Dixieland style but is ruined by the unnecessary and terrible Louis Armstrong impersonation contributed by one of the backing vocalists. In spite of this small blunder, Legal appears near the beginning of Costa's most consistent period and should be sought out by those interested in the revolutionary late-'60s/early-'70s period of Brazilian rock. 
[/b]

[img]image[/img]

[quote]
Exact Audio Copy V1.0 beta 3 from 29. August 2011

EAC extraction logfile from 31. July 2012, 14:43

Gal Costa / Le Gal

Used drive  : HL-DT-STDVDRAM GSA-T40N   Adapter: 0  ID: 0

Read mode               : Secure
Utilize accurate stream : Yes
Defeat audio cache      : Yes
Make use of C2 pointers : No

Read offset correction                      : 667
Overread into Lead-In and Lead-Out          : No
Fill up missing offset samples with silence : Yes
Delete leading and trailing silent blocks   : No
Null samples used in CRC calculations       : Yes
Used interface                              : Native Win32 interface for Win NT & 2000
Gap handling                                : Appended to previous track

Used output format              : User Defined Encoder
Selected bitrate                : 896 kBit/s
Quality                         : High
Add ID3 tag                     : No
Command line compressor         : C:Program FilesExact Audio CopyFLACFLAC.EXE
Additional command line options : -8 -V -T "ARTIST=%artist%" -T "TITLE=%title%" -T "ALBUM=%albumtitle%" -T "DATE=%year%" -T "TRACKNUMBER=%tracknr%" -T "GENRE=%genre%" -T "COMMENT=%comment%" -T "BAND=%albuminterpret%" -T "ALBUMARTIST=%albuminterpret%" -T "COMPOSER=%composer%" %haslyrics%--tag-from-file=LYRICS="%lyricsfile%"%haslyrics% -T "DISCNUMBER=%cdnumber%" -T "TOTALDISCS=%totalcds%" -T "TOTALTRACKS=%numtracks%" %hascover%--picture="%coverfile%"%hascover% %source% -o %dest%


TOC of the extracted CD

     Track |   Start  |  Length  | Start sector | End sector 
    ---------------------------------------------------------
        1  |  0:00.00 |  2:32.50 |         0    |    11449   
        2  |  2:32.50 |  3:41.50 |     11450    |    28074   
        3  |  6:14.25 |  2:25.70 |     28075    |    39019   
        4  |  8:40.20 |  4:19.32 |     39020    |    58476   
        5  | 12:59.52 |  2:51.10 |     58477    |    71311   
        6  | 15:50.62 |  4:25.53 |     71312    |    91239   
        7  | 20:16.40 |  2:54.72 |     91240    |   104361   
        8  | 23:11.37 |  3:06.60 |    104362    |   118371   
        9  | 26:18.22 |  4:03.45 |    118372    |   136641   
       10  | 30:21.67 |  2:13.15 |    136642    |   146631   


Track  1

     Filename H:MY EAC[.FLAC]Gal Costa - LeGal(1) Eu Sou Terr vel - Gal Costa.flac

     Pre-gap length  0:00:02.00

     Peak level 91.8 %
     Extraction speed 2.0 X
     Track quality 100.0 %
     Test CRC 2C17E940
     Copy CRC 2C17E940
     Track not present in AccurateRip database
     Copy OK

Track  2

     Filename H:MY EAC[.FLAC]Gal Costa - LeGal(2) L ngua Do P - Gal Costa.flac

     Peak level 78.4 %
     Extraction speed 2.3 X
     Track quality 100.0 %
     Test CRC A5910280
     Copy CRC A5910280
     Track not present in AccurateRip database
     Copy OK

Track  3

     Filename H:MY EAC[.FLAC]Gal Costa - LeGal(3) Love, Try And Die - Gal Costa.flac

     Peak level 97.7 %
     Extraction speed 2.3 X
     Track quality 100.0 %
     Test CRC 5E98B016
     Copy CRC 5E98B016
     Track not present in AccurateRip database
     Copy OK

Track  4

     Filename H:MY EAC[.FLAC]Gal Costa - LeGal(4) Mini-Mist rio - Gal Costa.flac

     Peak level 80.4 %
     Extraction speed 2.7 X
     Track quality 100.0 %
     Test CRC B097752D
     Copy CRC B097752D
     Track not present in AccurateRip database
     Copy OK

Track  5

     Filename H:MY EAC[.FLAC]Gal Costa - LeGal(5) Acau  - Gal Costa.flac

     Peak level 68.8 %
     Extraction speed 2.7 X
     Track quality 100.0 %
     Test CRC D98DCB6B
     Copy CRC D98DCB6B
     Track not present in AccurateRip database
     Copy OK

Track  6

     Filename H:MY EAC[.FLAC]Gal Costa - LeGal(6) Hotel Das Estrelas - Gal Costa.flac

     Peak level 80.5 %
     Extraction speed 2.9 X
     Track quality 100.0 %
     Test CRC 8511018D
     Copy CRC 8511018D
     Track not present in AccurateRip database
     Copy OK

Track  7

     Filename H:MY EAC[.FLAC]Gal Costa - LeGal(7) Deixa Sangrar (Carnaval1971) - Gal Costa.flac

     Peak level 68.1 %
     Extraction speed 2.5 X
     Track quality 99.9 %
     Test CRC 2DECCF35
     Copy CRC 2DECCF35
     Track not present in AccurateRip database
     Copy OK

Track  8

     Filename H:MY EAC[.FLAC]Gal Costa - LeGal(8) The Archaic Lonely Star Blues - Gal Costa.flac

     Peak level 71.8 %
     Extraction speed 3.0 X
     Track quality 100.0 %
     Test CRC B3632ED7
     Copy CRC B3632ED7
     Track not present in AccurateRip database
     Copy OK

Track  9

     Filename H:MY EAC[.FLAC]Gal Costa - LeGal(9) London, London - Gal Costa.flac

     Peak level 73.2 %
     Extraction speed 3.3 X
     Track quality 100.0 %
     Test CRC A7F92F5F
     Copy CRC A7F92F5F
     Track not present in AccurateRip database
     Copy OK

Track 10

     Filename H:MY EAC[.FLAC]Gal Costa - LeGal(10) Falsa Baiana - Gal Costa.flac

     Peak level 65.2 %
     Extraction speed 3.1 X
     Track quality 100.0 %
     Test CRC 136FFE45
     Copy CRC 136FFE45
     Track not present in AccurateRip database
     Copy OK


None of the tracks are present in the AccurateRip database

No errors occurred

End of status report

==== Log checksum 134E9559C0BD520F525453190EDCCD01D051BD131E91D4D7BB6925996F55C500 ====
[/quote]

[img]image[/img]

[img]image[/img]

[img]image[/img]
COVER/Gal costa cd.gif 121.246 KB
COVER/galback.jpg 87.066 KB
COVER/galfront.jpg 94.923 KB
Gathering some info...

Register and log in Isohunt and see no captcha anymore!

4000 symbols left
Hash 006A42CDCF34AFAC91D3EA69A23FEC1C25639B82