imdb
rating

5.1
The Shortcut

The Shortcut (2009)

Horror, Thriller

Full description
quality   dvdrip dvdr screener x264 hd bd

The Shortcut

Size 1.217 GB   0 seeders     Added 2012-08-05 02:52:15

Stream torrent
Starting‥ You need BitLord! Get it from BitLord.com
To download or stream you need BitLord. Visit them at BitLord.com
[img] image[/img]\r\n\r\nWith: Dave Franco, Shannon Marie Woodward and Andrew Seeley\r\n\r\nEen kort weggetje door het bos waarmee de doorgaande route af te snijden is, scheelt een hoop tijd voor menig schoolgaand kind. Maar niemand uit de naburige stadswijk durfde het ooit te nemen. Het pad leidde onder meer langs een spookachtig huis waarvan de bewoner bezoekers kenbaar maakte vooral niet naderbij te komen. Een oude dorpslegende vertelt dat de man ooit betrokken is geweest bij vermissingen van kinderen lange tijd geleden. Nu sommige van de kinderen opgegroeid zijn tot tieners, neemt hun nieuwsgierigheid zodanige proporties aan dat ze besluiten eens uit te zoeken hoe het zit met het betreffende optrekje van wie de bewoner nog steeds schijnt te leven.\r\n\r\nTwo brothers come upon a rarely used shortcut in their new town \r\n\r\nhttp://www.imdb.com/title/tt1243955\r\n\r\n[COLOR=#3300FF]------------------------ Dutch Friends ------------------------\r\n---------------------------------------------------------------\r\n- Bezoek ook eens mijn vrienden op:  http://www.Film-Test.nl --\r\n----- voor mijn Nederlandse Sync. ondertitels ---- en meer ----\r\n------- http://www.Film-Test.nl ---- voor Films en meer -------\r\n---------------------------------------------------------------[/COLOR]\r\n\r\nGeneral:\r\n\r\nComplete name                    : The Shortcut\\The Shortcut.avi\r\nFormat                           : AVI\r\nFormat/Info                      : Audio Video Interleave\r\nFile size                        : 1.13 GiB\r\nDuration                         : 1h 21mn\r\nOverall bit rate                 : 1 985 Kbps\r\n\r\nVideo:\r\n\r\nFormat                           : MPEG-4 Visual\r\nFormat profile                   : Simple@L3\r\nFormat settings, BVOP            : No\r\nFormat settings, QPel            : No\r\nFormat settings, GMC             : No warppoints\r\nFormat settings, Matrix          : Default (H.263)\r\nCodec ID                         : XVID\r\nCodec ID/Hint                    : XviD\r\nDuration                         : 1h 21mn\r\nBit rate                         : 1 526 Kbps\r\nWidth                            : 720 pixels\r\nHeight                           : 304 pixels\r\nDisplay aspect ratio             : 2.35:1\r\nFrame rate                       : 25.000 fps\r\nColor space                      : YUV\r\nChroma subsampling               : 4:2:0\r\nBit depth                        : 8 bits\r\nScan type                        : Progressive\r\nCompression mode                 : Lossy\r\nBits/(Pixel*Frame)               : 0.279\r\nStream size                      : 892 MiB (77%)\r\nWriting library                  : XviD 1.1.2 (UTC 2006-11-01)\r\n\r\nAudio:\r\n\r\nFormat                           : AC-3\r\nFormat/Info                      : Audio Coding 3\r\nMode extension                   : CM (complete main)\r\nCodec ID                         : 2000\r\nDuration                         : 1h 21mn\r\nBit rate mode                    : Constant\r\nBit rate                         : 448 Kbps\r\nChannel(s)                       : 6 channels\r\nChannel positions                : Front: L C R, Side: L R, LFE\r\nSampling rate                    : 48.0 KHz\r\nBit depth                        : 16 bits\r\nCompression mode                 : Lossy\r\nStream size                      : 262 MiB (23%)\r\nAlignment                        : Aligned on interleaves\r\nInterleave, duration             : 32 ms (0.80 video frame)\r\nInterleave, preload duration     : 160 ms
Cover/The Shortcut.jpg 62.549 KB
Cover/www.Film-Test.nl.JPG 34.175 KB
New Dutch Site.txt 117 B
Gathering some info...

Register and log in Isohunt and see no captcha anymore!

4000 symbols left
Hash 500D9B24AF2FD26C176AF02A7750642C3B121F6B

Related torrents for "The Shortcut"