Hostel 2011 DVDrip English Skandale

Size 1.235 GB   0 seeders     Added 2012-08-05 02:52:20

Stream torrent
Starting‥ You need BitLord! Get it from BitLord.com
To download or stream you need BitLord. Visit them at BitLord.com
[IMG]image[/IMG]\r\nmet Thomas Kretschmann, Kip Pardue en John Hensley\r\n\r\nTijdens een vrijgezellenfeest in Las Vegas laten vier vrienden zich overhalen om samen met twee sexy escortdames naar een privéfeestje te gaan. Eenmaal aangekomen merken ze al snel dat ze gebruikt worden voor een walgelijk spel waarbij marteling centraal staat. Dit sadistische schouwspel wordt georganiseerd door de leden van de Elite Hunting Club. \r\n\r\nWhile attending a bachelor party in Las Vegas, four friends are enticed by two sexy escorts to join them at a private party way off the Strip...\r\n\r\nhttp://www.imdb.com/title/tt1255916/\r\n\r\n[COLOR=#3300FF]------------------------ Dutch Friends ------------------------\r\n---------------------------------------------------------------\r\n- Bezoek ook eens mijn vrienden op:  http://www.Film-Test.nl --\r\n----- voor mijn Nederlandse Sync. ondertitels ---- en meer ----\r\n------- http://www.Film-Test.nl ---- voor Films en meer -------\r\n---------------------------------------------------------------[/COLOR]\r\n\r\nGeneral\r\nComplete name                            : Hostel Part 2011 DVDrip English Skandale.avi\r\nFormat                                   : AVI\r\nFormat/Info                              : Audio Video Interleave\r\nFile size                                : 1.15 GiB\r\nDuration                                 : 1h 24mn\r\nOverall bit rate                         : 1 956 Kbps\r\n\r\nVideo\r\nID                                       : 0\r\nFormat                                   : MPEG-4 Visual\r\nFormat profile                           : Simple@L3\r\nFormat settings, BVOP                    : No\r\nFormat settings, QPel                    : No\r\nFormat settings, GMC                     : No warppoints\r\nFormat settings, Matrix                  : Default (H.263)\r\nCodec ID                                 : XVID\r\nCodec ID/Hint                            : XviD\r\nDuration                                 : 1h 24mn\r\nSource duration                          : 1h 24mn\r\nBit rate                                 : 1 498 Kbps\r\nWidth                                    : 720 pixels\r\nHeight                                   : 304 pixels\r\nDisplay aspect ratio                     : 2.35:1\r\nFrame rate                               : 25.000 fps\r\nColor space                              : YUV\r\nChroma subsampling                       : 4:2:0\r\nBit depth                                : 8 bits\r\nScan type                                : Progressive\r\nCompression mode                         : Lossy\r\nBits/(Pixel*Frame)                       : 0.274\r\nStream size                              : 901 MiB (77%)\r\nWriting library                          : XviD 1.1.2 (UTC 2006-11-01)\r\n\r\nAudio\r\nID                                       : 1\r\nFormat                                   : AC-3\r\nFormat/Info                              : Audio Coding 3\r\nMode extension                           : CM (complete main)\r\nFormat settings, Endianness              : Big\r\nCodec ID                                 : 2000\r\nDuration                                 : 1h 24mn\r\nBit rate mode                            : Constant\r\nBit rate                                 : 448 Kbps\r\nChannel(s)                               : 6 channels\r\nChannel positions                        : Front: L C R, Side: L R, LFE\r\nSampling rate                            : 48.0 KHz\r\nBit depth                                : 16 bits\r\nCompression mode                         : Lossy\r\nStream size                              : 270 MiB (23%)\r\nAlignment                                : Aligned on interleaves\r\nInterleave, duration                     : 32 ms (0.80 video frame)
Cover/Hostel-Part-III-2011-Front-Cover-61672.jpg 96.725 KB
flyer.jpg 33.678 KB
Hostel Part 2011 DVDrip English Skandale.avi 1.235 GB
Gathering some info...

Register and log in Isohunt and see no captcha anymore!

4000 symbols left
Hash 0298C743AA4375F99B36E476D8969F166918035A