imdb
rating

7.1
Soul Surfer

Soul Surfer (2011)

Action, Drama

Full description
quality   hd telesync dvdrip dvd cam

Soul Surfer

Size 2.1 GB   0 seeders     Added 2012-08-05 03:00:23

Stream torrent
Starting‥ You need BitLord! Get it from BitLord.com
10
To download or stream you need BitLord. Visit them at BitLord.com
[img] image[/img]\r\n\r\nWith: Dennis Quaid, AnnaSophia Robb and Helen Hunt\r\n\r\nSoul Surfer vertelt het waargebeurde verhaal van de jonge surfster Bethany Hamilton, die haar arm bij een aanval van een haai verloor. Ze vocht moedig terug en tegen alle verwachtingen in werd ze opnieuw kampioen. Ze werd een bron van inspiratie voor miljoenen mensen wereldwijd door haar onwrikbare doorzettingsvermogen en haar onaangetaste vertrouwen.\r\n\r\nA teenage surfer girl summons the courage to go back into the ocean after losing an arm in a shark attack. \r\n\r\nhttp://www.imdb.com/title/tt1596346\r\n\r\n[COLOR=#3300FF]------------------------ Dutch Friends ------------------------\r\n---------------------------------------------------------------\r\n- Bezoek ook eens mijn vrienden op:  http://www.Film-Test.nl --\r\n----- voor mijn Nederlandse Sync. ondertitels ---- en meer ----\r\n------- http://www.Film-Test.nl ---- voor Films en meer -------\r\n---------------------------------------------------------------[/COLOR]\r\n\r\nGeneral:\r\n\r\nComplete name                    : Soul Surfer\\Soul Surfer.avi\r\nFormat                           : AVI\r\nFormat/Info                      : Audio Video Interleave\r\nFile size                        : 1.96 GiB\r\nDuration                         : 1h 46mn\r\nOverall bit rate                 : 2 630 Kbps\r\n\r\nVideo:\r\n\r\nFormat                           : MPEG-4 Visual\r\nFormat profile                   : Simple@L3\r\nFormat settings, BVOP            : No\r\nFormat settings, QPel            : No\r\nFormat settings, GMC             : No warppoints\r\nFormat settings, Matrix          : Default (H.263)\r\nCodec ID                         : XVID\r\nCodec ID/Hint                    : XviD\r\nDuration                         : 1h 46mn\r\nBit rate                         : 2 171 Kbps\r\nWidth                            : 720 pixels\r\nHeight                           : 304 pixels\r\nDisplay aspect ratio             : 2.35:1\r\nFrame rate                       : 23.976 fps\r\nColor space                      : YUV\r\nChroma subsampling               : 4:2:0\r\nBit depth                        : 8 bits\r\nScan type                        : Progressive\r\nCompression mode                 : Lossy\r\nBits/(Pixel*Frame)               : 0.414\r\nStream size                      : 1.61 GiB (83%)\r\nWriting library                  : XviD 1.1.2 (UTC 2006-11-01)\r\n\r\nAudio:\r\n\r\nFormat                           : AC-3\r\nFormat/Info                      : Audio Coding 3\r\nMode extension                   : CM (complete main)\r\nCodec ID                         : 2000\r\nDuration                         : 1h 46mn\r\nBit rate mode                    : Constant\r\nBit rate                         : 448 Kbps\r\nChannel(s)                       : 6 channels\r\nChannel positions                : Front: L C R, Side: L R, LFE\r\nSampling rate                    : 48.0 KHz\r\nBit depth                        : 16 bits\r\nCompression mode                 : Lossy\r\nStream size                      : 341 MiB (17%)\r\nAlignment                        : Aligned on interleaves\r\nInterleave, duration             : 32 ms (0.77 video frame)\r\nInterleave, preload duration     : 288 ms
Cover/Soul Surfer.jpg 52.449 KB
Cover/www.Film-Test.nl.JPG 34.175 KB
New Dutch Site.txt 117 B
Gathering some info...

Register and log in Isohunt and see no captcha anymore!

4000 symbols left
Hash B8C4A27FAC261D3E94EEFDCB6030AED8D58994A3

Related torrents for "Soul Surfer"