imdb
rating

6.3
Total Recall

Total Recall (2012)

Action, Adventure, Science Fiction, Thriller

Full description
quality   screener dvdrip dvd bd

Total Recall 2012 TS READNFO XviD -Leaked

Size 820.752 MB   0 seeders     Added 2012-08-07 02:22:26

Stream torrent
Starting‥ You need BitLord! Get it from BitLord.com
To download or stream you need BitLord. Visit them at BitLord.com
httpi48.tinypic.com30dfo5w.png\r\n\r\n                                                                                                                 \r\nIMDB: http://www.imdb.com/title/tt1386703/\r\n\r\n                                                                                        \r\nSOURCES:\r\nAUDIO - Tooth Fairy\r\nVIDEO - mpeg file from santa                                                                                          \r\n\r\n\r\nSTATS:\r\n\r\nVideo\r\nID                                       : 0\r\nFormat                                   : MPEG-4 Visual\r\nFormat profile                           : Advanced Simple@L5\r\nFormat settings, BVOP                    : 2\r\nFormat settings, QPel                    : No\r\nFormat settings, GMC                     : No warppoints\r\nFormat settings, Matrix                  : Default (MPEG)\r\nMuxing mode                              : Packed bitstream\r\nCodec ID                                 : XVID\r\nCodec ID/Hint                            : XviD\r\nDuration                                 : 1h 44mn\r\nBit rate                                 : 900 Kbps\r\nWidth                                    : 512 pixels\r\nHeight                                   : 208 pixels\r\nDisplay aspect ratio                     : 2.462\r\nFrame rate                               : 25.000 fps\r\nColor space                              : YUV\r\nChroma subsampling                       : 4:2:0\r\nBit depth                                : 8 bits\r\nScan type                                : Progressive\r\nCompression mode                         : Lossy\r\nBits/(Pixel*Frame)                       : 0.338\r\nStream size                              : 675 MiB (87%)\r\nWriting library                          : XviD 64\r\n\r\nAudio\r\nID                                       : 1\r\nFormat                                   : MPEG Audio\r\nFormat version                           : Version 1\r\nFormat profile                           : Layer 3\r\nCodec ID                                 : 55\r\nCodec ID/Hint                            : MP3\r\nDuration                                 : 1h 44mn\r\nBit rate mode                            : Constant\r\nBit rate                                 : 128 Kbps\r\nChannel(s)                               : 2 channels\r\nSampling rate                            : 44.1 KHz\r\nCompression mode                         : Lossy\r\nStream size                              : 96.0 MiB (12%)\r\nAlignment                                : Split accross interleaves\r\nInterleave, duration                     : 40 ms (1.00 video frame)\r\nInterleave, preload duration             : 500 ms\r\n\r\n\r\n\r\nWORKDONE:\r\n\r\nFirst off readnfo .....basically to tell ya the video is pretty poo and is missing a few mins :(\r\n\r\nThe was a low res crap mpeg file,so first off we needed too crop borders ...upscale the max we could \r\nthen clean it up.\r\nAudio was some nice line ....and thought what the hell we\'ll sync it anyway,gives users a little taste of\r\nwhat th film is like :)\r\nPita to sync aswell ...but we got there in the end.\r\n\r\nscreenies:\r\n[img]image[/img] \r\n[img]image[/img] \r\n[img]image[/img] \r\n[img]image[/img] \r\n\r\nGREETS: EVERYONE :)
Total Recall 2012 TS READNFO XviD -Leaked/Sample.avi 3.936 MB
Total Recall 2012 TS READNFO XviD -Leaked/Total Recall 2012 TS READNFO XviD -Leaked.avi 815.905 MB
Total Recall 2012 TS READNFO XviD -Leaked/Total Recall 2012 TS READNFO XviD -Leaked.avi_thumbs_[2012.08.06_04.40.51].png 907.557 KB
Gathering some info...

Register and log in Isohunt and see no captcha anymore!

4000 symbols left
Hash 6692b22a4960f94b8a0b3ab3f6c39889976e258f

Related torrents for "Total Recall 2012 TS READNFO XviD -Leaked"

Torrent search:

telesync 2012