Lay the Favorite 2012 DVDrip XviD

Size 755.906 MB   0 seeders     Added 2012-08-07 19:48:35

Stream torrent
Starting‥ You need BitLord! Get it from BitLord.com
10
To download or stream you need BitLord. Visit them at BitLord.com
Format                           : AVI\r\nFormat/Info                      : Audio Video Interleave\r\nFormat profile                   : OpenDML\r\nOverall bit rate                 : 1 800 Kbps\r\nWriting application              : VirtualDubMod 1.5.10.2 (build 2542/release)\r\nWriting library                  : VirtualDubMod build 2542/release\r\n\r\n[b]Video[/b]\r\nFormat                           : MPEG-4 Visual\r\nFormat settings, BVOP            : Yes\r\nFormat settings, QPel            : No\r\nFormat settings, Matrix          : Default (MPEG)\r\nCodec ID                         : XVID\r\nCodec ID/Hint                    : XviD\r\nBit rate                         : 1 411 Kbps\r\nWidth                            : 640 pixels\r\nHeight                           : 272 pixels\r\nDisplay aspect ratio             : 2.35:1\r\nFrame rate                       : 23.976 fps\r\nResolution                       : 24 bits\r\nColorimetry                      : 4:2:0\r\nScan type                        : Progressive\r\nBits/(Pixel*Frame)               : 0.338\r\nStream size                      : 1.03 GiB (78%)\r\n\r\n[b]Audio[/b]\r\nFormat                           : AC-3\r\nFormat/Info                      : Audio Coding 3\r\nCodec ID                         : 2000\r\nBit rate mode                    : Constant\r\nBit rate                         : 384 Kbps\r\nChannel(s)                       : 6 channels\r\nChannel positions                : Front: L C R, Surround: L R, LFE\r\nSampling rate                    : 48.0 KHz\r\nStream size                      : 287 MiB (21%)\r\nAlignment                        : Aligned on interleaves\r\nInterleave, duration             : 64 ms (1.53 video frames)\r\nInterleave, preload duration     : 192 ms
Lay the Favorite.2012.DVDrip.XviD/Torrent Downloaded From downloadhindimovies.in.txt 478 B
Lay the Favorite.2012.DVDrip.XviD/Torrent downloaded from h33t.com.txt 478 B
Lay the Favorite.2012.DVDrip.XviD/Dmt Nfo.txt 477 B
Gathering some info...

Register and log in Isohunt and see no captcha anymore!

4000 symbols left
Hash 00195b0426bf03d488495a35c170b0a7f4989a08

Related torrents for "Lay the Favorite 2012 DVDrip XviD"

Torrent search:

2012