Elis Regina - Trem Azul

Size 396.195 MB   13 seeders     Added 2012-08-08 01:35:47

Stream torrent
Starting‥ You need BitLord! Get it from BitLord.com
10
To download or stream you need BitLord. Visit them at BitLord.com
[CENTER][img]image[/img]

[img]image[/img]

[img]image[/img]

[img]image[/img]

[b]
Artist: Elis Regina 
Title Of Album: Trem Azul
Label: Som Livre 
Original Release Date: CD:2003
Genre: Brasilian MPB
Source: CD
Playing Time: 63:43
Total Size: 377,63 MB
Quality: FLAC+Cue+Log+Info+Cover[Front + Back + CD]
Bitrate: Lossless
[/b]

[img]image[/img]

[b]
1 Aprendendo a Jogar 4:47
2 Alô Alô, Marciano 4:01
3 O Medo de Amar é o Medo de Ser Livre 4:17
4 O Trem Azul 4:31
5 Vento de Maio 3:12
6 Se Eu Quiser Falar com Deus 7:33
7 Flora 5:57
8 Valsa de Eurídeca 3:36
9 Unencounter (Canção da América)	2:50
10 Me Deixas Louca (Me vuelves loco) 6:28
11 Sai Dessa 2:09
12 Aqui é o País do Futebol 4:22
13 Baila Comigo 1:02
14 Amante à Moda Antiga 0:59
15 Fantástico 0:19
16 Começar de Novo	0:47
17 Trapalhões 0:21
18 Menino do Rio 1:02
19 The Fuzz 0:23
20 Lança Perfume 1:29
21 Nove Luas 0:44
22 O que Foi Feito de Vera 2:39
23 Caxangá 2:54
24 Maria Maria 4:20
25 O Trem Azul 3:00
[/b]

[img]image[/img]

[b]
The show has some initial up-tempo numbers to get the audience set up, but then she delivers pure, undiluted, top-drawer 'furacão'. The 'Best of the Best' begin with the Lô Borges/Ronaldo Bastos title track,' "O Trem Azul" (The Blue Train) which is delivered near the beginning of the show and is repeated at the very end. Both versions are touching mid-tembo renditions of one of her favorite songs, which harkens back to the landmark CD by Mr Nacimento & the Clube da Esquina'. "Vento De Mao" (Winds of May) is pure joy to hear. The 'voice with guitar' waltz, " Valsa De Euridice", is overpoweringly beautiful with Elis hitting those incredible mid-range notes that only her voice could produce. "Menino do Rio" (River Boy) is hilarious. "Caxangá" (Crab) & "Maria, Maria", as a ballad that accelerates, are excellent. And the final recorded performance of her career, "O Trem Azul," is the show closer, pushing the envelope as Elis is overcome with emotion. To some Elis Regina was an acquired taste, but to me, and all of Brazil, she ranks with the finest female singers of all time: Maria Callas, Billie Holiday, Judy Garland, Sarah Vaughn, Ella, Kiri Ti Kanawa, Angela Gheroghiu, Alessandra Coletti, Jessye Norman, whoever: consider Ms Regina for your personal list. This performance is very reminiscent of the current shows by her daughter, Grammy-winner Maria Rita who has 100% of her mother's vocal DNA: unique, high energy, touching, nuanced, and very personal. All sung in sensual Brazilian Portuguese. HIghly Recommended as an ESSENTIAL recording for Elis Regina completists with the caution on the sound. Four OVERALL Stars for the CD, Five REMARKABLE Stars for Elis. She truly was Furacão (the hurricane).
[/b]

[img]image[/img]

[quote]
Exact Audio Copy V1.0 beta 3 from 29. August 2011

EAC extraction logfile from 1. August 2012, 22:42

Elis Regina / Trem Azul

Used drive  : HL-DT-STDVDRAM GSA-T40N   Adapter: 0  ID: 0

Read mode               : Secure
Utilize accurate stream : Yes
Defeat audio cache      : Yes
Make use of C2 pointers : No

Read offset correction                      : 667
Overread into Lead-In and Lead-Out          : No
Fill up missing offset samples with silence : Yes
Delete leading and trailing silent blocks   : No
Null samples used in CRC calculations       : Yes
Used interface                              : Native Win32 interface for Win NT & 2000
Gap handling                                : Appended to previous track

Used output format              : User Defined Encoder
Selected bitrate                : 896 kBit/s
Quality                         : High
Add ID3 tag                     : No
Command line compressor         : C:\Program Files\Exact Audio Copy\FLAC\FLAC.EXE
Additional command line options : -8 -V -T "ARTIST=%artist%" -T "TITLE=%title%" -T "ALBUM=%albumtitle%" -T "DATE=%year%" -T "TRACKNUMBER=%tracknr%" -T "GENRE=%genre%" -T "COMMENT=%comment%" -T "BAND=%albuminterpret%" -T "ALBUMARTIST=%albuminterpret%" -T "COMPOSER=%composer%" %haslyrics%--tag-from-file=LYRICS="%lyricsfile%"%haslyrics% -T "DISCNUMBER=%cdnumber%" -T "TOTALDISCS=%totalcds%" -T "TOTALTRACKS=%numtracks%" %hascover%--picture="%coverfile%"%hascover% %source% -o %dest%


TOC of the extracted CD

     Track |   Start  |  Length  | Start sector | End sector 
    ---------------------------------------------------------
        1  |  0:00.00 |  4:47.03 |         0    |    21527   
        2  |  4:47.03 |  4:01.34 |     21528    |    39636   
        3  |  8:48.37 |  4:17.16 |     39637    |    58927   
        4  | 13:05.53 |  4:30.43 |     58928    |    79220   
        5  | 17:36.21 |  3:12.08 |     79221    |    93628   
        6  | 20:48.29 |  7:32.70 |     93629    |   127598   
        7  | 28:21.24 |  5:56.57 |    127599    |   154355   
        8  | 34:18.06 |  3:35.50 |    154356    |   170530   
        9  | 37:53.56 |  2:49.58 |    170531    |   183263   
       10  | 40:43.39 |  6:28.33 |    183264    |   212396   
       11  | 47:11.72 |  2:09.31 |    212397    |   222102   
       12  | 49:21.28 |  4:22.06 |    222103    |   241758   
       13  | 53:43.34 |  1:02.37 |    241759    |   246445   
       14  | 54:45.71 |  0:58.45 |    246446    |   250840   
       15  | 55:44.41 |  0:18.54 |    250841    |   252244   
       16  | 56:03.20 |  0:46.71 |    252245    |   255765   
       17  | 56:50.16 |  0:21.03 |    255766    |   257343   
       18  | 57:11.19 |  1:02.18 |    257344    |   262011   
       19  | 58:13.37 |  0:23.25 |    262012    |   263761   
       20  | 58:36.62 |  1:28.40 |    263762    |   270401   
       21  | 60:05.27 |  0:43.74 |    270402    |   273700   
       22  | 60:49.26 |  2:38.40 |    273701    |   285590   
       23  | 63:27.66 |  2:53.48 |    285591    |   298613   
       24  | 66:21.39 |  4:20.28 |    298614    |   318141   
       25  | 70:41.67 |  3:01.64 |    318142    |   331780   


Track  1

     Filename H:\MY EAC[.FLAC]\Elis Regina - Trem Azul\(1) Aprendendo a Jogar - Elis Regina.flac

     Pre-gap length  0:00:02.00

     Peak level 96.2 %
     Extraction speed 2.2 X
     Track quality 100.0 %
     Test CRC 77EE47A6
     Copy CRC 77EE47A6
     Accurately ripped (confidence 1)  [AB858029]  (AR v1)
     Copy OK

Track  2

     Filename H:\MY EAC[.FLAC]\Elis Regina - Trem Azul\(2) Al  Al  Marciano - Elis Regina.flac

     Peak level 81.4 %
     Extraction speed 2.4 X
     Track quality 100.0 %
     Test CRC 73F1A93B
     Copy CRC 73F1A93B
     Accurately ripped (confidence 1)  [65077E7E]  (AR v1)
     Copy OK

Track  3

     Filename H:\MY EAC[.FLAC]\Elis Regina - Trem Azul\(3) O Medo de Amar   o Medo de Ser Livre - Elis Regina.flac

     Peak level 80.9 %
     Extraction speed 2.5 X
     Track quality 100.0 %
     Test CRC 28E0FC9C
     Copy CRC 28E0FC9C
     Accurately ripped (confidence 1)  [FBB24C0C]  (AR v1)
     Copy OK

Track  4

     Filename H:\MY EAC[.FLAC]\Elis Regina - Trem Azul\(4) O Trem Azul - Elis Regina.flac

     Peak level 72.6 %
     Extraction speed 2.5 X
     Track quality 99.9 %
     Test CRC A23539DE
     Copy CRC A23539DE
     Accurately ripped (confidence 1)  [D7CC415A]  (AR v1)
     Copy OK

Track  5

     Filename H:\MY EAC[.FLAC]\Elis Regina - Trem Azul\(5) Vento de Maio - Elis Regina.flac

     Peak level 81.4 %
     Extraction speed 2.7 X
     Track quality 100.0 %
     Test CRC 2BA4B88A
     Copy CRC 2BA4B88A
     Accurately ripped (confidence 1)  [9109BE60]  (AR v1)
     Copy OK

Track  6

     Filename H:\MY EAC[.FLAC]\Elis Regina - Trem Azul\(6) Se Eu Quiser Falar com Deus - Elis Regina.flac

     Peak level 98.4 %
     Extraction speed 3.2 X
     Track quality 100.0 %
     Test CRC 69FE497B
     Copy CRC 69FE497B
     Accurately ripped (confidence 1)  [8867C908]  (AR v1)
     Copy OK

Track  7

     Filename H:\MY EAC[.FLAC]\Elis Regina - Trem Azul\(7) Flora - Elis Regina.flac

     Peak level 74.6 %
     Extraction speed 3.4 X
     Track quality 100.0 %
     Test CRC 4714211A
     Copy CRC 4714211A
     Accurately ripped (confidence 1)  [5B1E283D]  (AR v1)
     Copy OK

Track  8

     Filename H:\MY EAC[.FLAC]\Elis Regina - Trem Azul\(8) Valsa de Eur dece - Elis Regina.flac

     Peak level 52.7 %
     Extraction speed 3.3 X
     Track quality 100.0 %
     Test CRC 1DA48B47
     Copy CRC 1DA48B47
     Accurately ripped (confidence 1)  [162BC7C2]  (AR v1)
     Copy OK

Track  9

     Filename H:\MY EAC[.FLAC]\Elis Regina - Trem Azul\(9) Unencounter (Can  o da Am rica) - Elis Regina.flac

     Peak level 62.6 %
     Extraction speed 3.3 X
     Track quality 100.0 %
     Test CRC DBB16BEE
     Copy CRC DBB16BEE
     Accurately ripped (confidence 1)  [9685D121]  (AR v1)
     Copy OK

Track 10

     Filename H:\MY EAC[.FLAC]\Elis Regina - Trem Azul\(10) Me Deixas Louca (Me Vuelves Loco) - Elis Regina.flac

     Peak level 89.5 %
     Extraction speed 3.4 X
     Track quality 99.9 %
     Test CRC C9B97DC2
     Copy CRC C9B97DC2
     Accurately ripped (confidence 1)  [C38CF507]  (AR v1)
     Copy OK

Track 11

     Filename H:\MY EAC[.FLAC]\Elis Regina - Trem Azul\(11) Sai Dessa - Elis Regina.flac

     Peak level 90.2 %
     Extraction speed 3.2 X
     Track quality 100.0 %
     Test CRC B55159C0
     Copy CRC B55159C0
     Accurately ripped (confidence 1)  [AB1ACD7A]  (AR v1)
     Copy OK

Track 12

     Filename H:\MY EAC[.FLAC]\Elis Regina - Trem Azul\(12) Aqui   o Pa s do Futebol - Elis Regina.flac

     Peak level 92.5 %
     Extraction speed 3.7 X
     Track quality 100.0 %
     Test CRC F28FDAA2
     Copy CRC F28FDAA2
     Accurately ripped (confidence 1)  [8FF8E7C9]  (AR v1)
     Copy OK

Track 13

     Filename H:\MY EAC[.FLAC]\Elis Regina - Trem Azul\(13) Baila Comigo - Elis Regina.flac

     Peak level 91.9 %
     Extraction speed 2.8 X
     Track quality 100.0 %
     Test CRC 4832F35E
     Copy CRC 4832F35E
     Accurately ripped (confidence 1)  [7E758C3A]  (AR v1)
     Copy OK

Track 14

     Filename H:\MY EAC[.FLAC]\Elis Regina - Trem Azul\(14) Amante   Moda Antiga - Elis Regina.flac

     Peak level 76.3 %
     Extraction speed 2.8 X
     Track quality 100.0 %
     Test CRC FA5B575C
     Copy CRC FA5B575C
     Accurately ripped (confidence 1)  [AA305F34]  (AR v1)
     Copy OK

Track 15

     Filename H:\MY EAC[.FLAC]\Elis Regina - Trem Azul\(15) Fant stico - Elis Regina.flac

     Peak level 84.5 %
     Extraction speed 1.6 X
     Track quality 100.0 %
     Test CRC 4B8EE091
     Copy CRC 4B8EE091
     Accurately ripped (confidence 1)  [80F72C19]  (AR v1)
     Copy OK

Track 16

     Filename H:\MY EAC[.FLAC]\Elis Regina - Trem Azul\(16) Come ar de Novo - Elis Regina.flac

     Peak level 82.6 %
     Extraction speed 2.5 X
     Track quality 100.0 %
     Test CRC 2346E131
     Copy CRC 2346E131
     Accurately ripped (confidence 1)  [16CEF088]  (AR v1)
     Copy OK

Track 17

     Filename H:\MY EAC[.FLAC]\Elis Regina - Trem Azul\(17) Trapalh es - Elis Regina.flac

     Peak level 87.9 %
     Extraction speed 1.6 X
     Track quality 100.0 %
     Test CRC 7F2F69F6
     Copy CRC 7F2F69F6
     Accurately ripped (confidence 1)  [48F7A3C2]  (AR v1)
     Copy OK

Track 18

     Filename H:\MY EAC[.FLAC]\Elis Regina - Trem Azul\(18) Menino do Rio - Elis Regina.flac

     Peak level 73.8 %
     Extraction speed 2.5 X
     Track quality 100.0 %
     Test CRC F1C100E3
     Copy CRC F1C100E3
     Accurately ripped (confidence 1)  [753BC8CE]  (AR v1)
     Copy OK

Track 19

     Filename H:\MY EAC[.FLAC]\Elis Regina - Trem Azul\(19) The Fuzz - Elis Regina.flac

     Peak level 87.3 %
     Extraction speed 1.7 X
     Track quality 100.0 %
     Test CRC 3BB3EE76
     Copy CRC 3BB3EE76
     Accurately ripped (confidence 1)  [532AE34F]  (AR v1)
     Copy OK

Track 20

     Filename H:\MY EAC[.FLAC]\Elis Regina - Trem Azul\(20) Lan a Perfume - Elis Regina.flac

     Peak level 88.5 %
     Extraction speed 2.7 X
     Track quality 100.0 %
     Test CRC EE244388
     Copy CRC EE244388
     Accurately ripped (confidence 1)  [C3D6060D]  (AR v1)
     Copy OK

Track 21

     Filename H:\MY EAC[.FLAC]\Elis Regina - Trem Azul\(21) Nove Luas - Elis Regina.flac

     Peak level 63.0 %
     Extraction speed 2.2 X
     Track quality 100.0 %
     Test CRC 8B9355AA
     Copy CRC 8B9355AA
     Accurately ripped (confidence 1)  [1B136510]  (AR v1)
     Copy OK

Track 22

     Filename H:\MY EAC[.FLAC]\Elis Regina - Trem Azul\(22) O que Foi Feito de Vera - Elis Regina.flac

     Peak level 88.8 %
     Extraction speed 3.4 X
     Track quality 100.0 %
     Test CRC BF93798F
     Copy CRC BF93798F
     Accurately ripped (confidence 1)  [2265DFB4]  (AR v1)
     Copy OK

Track 23

     Filename H:\MY EAC[.FLAC]\Elis Regina - Trem Azul\(23) Caxang  - Elis Regina.flac

     Peak level 91.0 %
     Extraction speed 3.0 X
     Track quality 99.9 %
     Test CRC 1A84FCE2
     Copy CRC 1A84FCE2
     Track not present in AccurateRip database
     Copy OK

Track 24

     Filename H:\MY EAC[.FLAC]\Elis Regina - Trem Azul\(24) Maria Maria - Elis Regina.flac

     Peak level 91.7 %
     Extraction speed 3.5 X
     Track quality 100.0 %
     Test CRC C0D9EE48
     Copy CRC C0D9EE48
     Accurately ripped (confidence 1)  [7FD4822D]  (AR v1)
     Copy OK

Track 25

     Filename H:\MY EAC[.FLAC]\Elis Regina - Trem Azul\(25) O Trem Azul - Elis Regina.flac

     Peak level 92.1 %
     Extraction speed 3.3 X
     Track quality 100.0 %
     Test CRC C9E388FA
     Copy CRC C9E388FA
     Accurately ripped (confidence 1)  [998F8791]  (AR v1)
     Copy OK

All tracks accurately ripped

No errors occurred

End of status report

==== Log checksum EB7DEEDCF0975B5534265AB668B083E7602725B9DA4B2BC4D259299CA4E46588 ====
[/quote]

[img]image[/img]

[img]image[/img][/CENTER]
Cover/Eliback.jpg 46.615 KB
Cover/Elis front.jpg 66.154 KB
Cover/elisCD.gif 76.124 KB
Gathering some info...

Register and log in Isohunt and see no captcha anymore!

4000 symbols left
Hash 0978EED0E3C84C66C24A39ACD5F3C330DEC54904