The Dark Knight Rises 2012 Xvid rar

Size 2.313 GB   0 seeders     Added 2012-08-09 17:27:59

Stream torrent
Starting‥ You need BitLord! Get it from 1BitLord.com
To download or stream you need BitLord. Visit them at BitLord.com
\r\nThe Dark Knight Rises 2012 TS XViD - INSPiRAL\r\n\r\n\r\nIMDB.........: http://www.imdb.com/title/tt1345836/\r\n\r\n\r\n\r\nSOURCES:\r\n\r\nVIDEO -  26k source file ( cheers guys )\r\nAUDIO -  tooth fairy ( thanks to special friends )\r\nSUBS  - Romanian @  veverita_bc & felixuca \r\n\r\nSTATS:\r\n\r\nVideo\r\nID                               : 0\r\nFormat                           : MPEG-4 Visual\r\nFormat profile                   : Advanced Simple@L5\r\nFormat settings, BVOP            : 2\r\nFormat settings, QPel            : No\r\nFormat settings, GMC             : No warppoints\r\nFormat settings, Matrix          : Default (MPEG)\r\nMuxing mode                      : Packed bitstream\r\nCodec ID                         : XVID\r\nCodec ID/Hint                    : XviD\r\nDuration                         : 2h 36mn\r\nBit rate                         : 1 821 Kbps\r\nWidth                            : 720 pixels\r\nHeight                           : 288 pixels\r\nDisplay aspect ratio             : 2.500\r\nFrame rate                       : 29.970 fps\r\nColor space                      : YUV\r\nChroma subsampling               : 4:2:0\r\nBit depth                        : 8 bits\r\nScan type                        : Progressive\r\nCompression mode                 : Lossy\r\nBits/(Pixel*Frame)               : 0.293\r\nStream size                      : 1.99 GiB (93%)\r\nWriting library                  : XviD 64\r\n\r\nAudio\r\nID                               : 1\r\nFormat                           : MPEG Audio\r\nFormat version                   : Version 1\r\nFormat profile                   : Layer 3\r\nMode                             : Joint stereo\r\nMode extension                   : MS Stereo\r\nCodec ID                         : 55\r\nCodec ID/Hint                    : MP3\r\nDuration                         : 2h 36mn\r\nBit rate mode                    : Constant\r\nBit rate                         : 128 Kbps\r\nChannel(s)                       : 2 channels\r\nSampling rate                    : 44.1 KHz\r\nCompression mode                 : Lossy\r\nStream size                      : 143 MiB (7%)\r\nAlignment                        : Split accross interleaves\r\nInterleave, duration             : 33 ms (1.00 video frame)\r\nInterleave, preload duration     : 500 ms 
The Dark Knight Rises 2012 Xvid.rar 2.313 GB
Gathering some info...

Register and log in Isohunt and see no captcha anymore!

4000 symbols left
Hash ddf505681f56860794dfc1b9b19ce2427df1efcb

Related torrents for "The Dark Knight Rises 2012 Xvid rar"

Torrent search:

2012