The Expendables 2[2012] DVDRip XviD AC3-5 1-AQOS

Size 706.302 MB   0 seeders     Added 2012-08-10 01:15:22

Stream torrent
Starting‚Ä• You need BitLord! Get it from 1BitLord.com
To download or stream you need BitLord. Visit them at BitLord.com
\r\nFormat profile : Base Media\r\nCodec ID : isom\r\nOverall bit rate mode : Variable\r\nOverall bit rate : 1 423 Kbps\r\nEncoded date : UTC 2012-08-4 12:49:13\r\nTagged date : UTC 2012-08-4 12:49:13\r\nWriting application : Lavf51.12.1\r\n\r\nVideo\r\n\r\nFormat : AVC\r\nFormat/Info : Advanced Video Codec\r\nFormat profile : Baseline@L3.0\r\nFormat settings, CABAC : No\r\nFormat settings, ReFrames : 5 frames\r\nFormat settings, GOP : M=1, N=12\r\nCodec ID : avc1\r\nCodec ID/Info : Advanced Video Coding\r\n\r\nBit rate : 1 266 Kbps\r\nWidth : 720 pixels\r\nHeight : 304 pixels\r\nDisplay aspect ratio : 2.35:1\r\nFrame rate mode : Constant\r\nFrame rate : 24.000 fps\r\nColor space : YUV\r\nChroma subsampling : 4:2:0\r\nBit depth : 8 bits\r\nScan type : Progressive\r\nBits/(Pixel*Frame) : 0.241\r\nStream size : 1.03 GiB (89%)\r\n\r\n\r\nAudio\r\n\r\nFormat : AAC\r\nFormat/Info : Advanced Audio Codec\r\nFormat profile : LC\r\nCodec ID : 40\r\nBit rate mode : Variable\r\nBit rate : 152 Kbps\r\nChannel(s) : 2 channels\r\nChannel positions : Front: L R\r\nSampling rate : 44.1 KHz\r\nCompression mode : Lossy\r\nStream size : 127 MiB (11%)\r\n\r\n\r\nAny Problems Let me KNow\r\n\r\n!!!!!!!!!!!! Please Seed and Enjoy Sharing !!!!!!!!!!!!!!
The Expendables 2[2012].DVDRip.XviD.AC3-5.1-AQOS/The Expendables 2.wmv 706.229 MB
The Expendables 2[2012].DVDRip.XviD.AC3-5.1-AQOS/Subtitle.srt 66.326 KB
The Expendables 2[2012].DVDRip.XviD.AC3-5.1-AQOS/info.nfo 6.41 KB
Gathering some info...

Register and log in Isohunt and see no captcha anymore!

4000 symbols left
Hash 76a02fe7d354d80fd5eaed971853b74153e8d258

We have tons of cool stuff like this:

Torrent search:

ac3 2012