imdb
rating

5.0
InSight

InSight (2011)

Mystery, Thriller, Foreign

Full description
quality   dvdrip dvdr x264

InSight

Size 1.321 GB   0 seeders     Added 2012-08-10 02:53:41

Stream torrent
Starting‥ You need BitLord! Get it from BitLord.com
To download or stream you need BitLord. Visit them at BitLord.com
[img] image[/img]\r\n\r\nWith: Natalie Zea, Sean Patrick Flanery en Angeline-Rose Troy\r\n\r\nKaitlyn, een eerste-hulp verpleegkundige, buigt zich over een jong slachtoffer van een steekpartij. Hierdoor wordt ze per ongeluk geëlektrocuteerd door de defibrillator die wordt gebruikt in een poging om de vrouw te redden. Bijna onmiddellijk begint Kaitlyn de herinneringen van het slachtoffer te ervaren. Ze wendt zich tot haar familie, vrienden en de politie maar niemand neemt haar serieus. Ze besluit dat ze zelf moet proberen om de misdaad op te lossen of het risico te lopen dat de angstaanjagende visioenen haar eigen leven op het spel zetten. Uiteindelijk neemt ze de zaak op met de rechercheur die op de zaak zit en baant zich een weg door het verleden van het slachtoffer om de wrede waarheid te ontdekken.\r\n\r\nKaitlyn, an ER nurse who is tending to a young stabbing victim, is accidentally electrocuted by the defibrillator that is used in an effort to save the woman's life... \r\n\r\nhttp://www.imdb.com/title/tt1687277\r\n\r\n[COLOR=#3300FF]------------------------ Dutch Friends ------------------------\r\n---------------------------------------------------------------\r\n- Bezoek ook eens mijn vrienden op:  http://www.Film-Test.nl --\r\n----- voor mijn Nederlandse Sync. ondertitels ---- en meer ----\r\n------- http://www.Film-Test.nl ---- voor Films en meer -------\r\n---------------------------------------------------------------[/COLOR]\r\n\r\nGeneral:\r\n\r\nComplete name                    : InSight\\InSight.avi\r\nFormat                           : AVI\r\nFormat/Info                      : Audio Video Interleave\r\nFile size                        : 1.23 GiB\r\nDuration                         : 1h 31mn\r\nOverall bit rate                 : 1 918 Kbps\r\n\r\nVideo:\r\n\r\nFormat                           : MPEG-4 Visual\r\nFormat profile                   : Simple@L3\r\nFormat settings, BVOP            : No\r\nFormat settings, QPel            : No\r\nFormat settings, GMC             : No warppoints\r\nFormat settings, Matrix          : Default (H.263)\r\nCodec ID                         : XVID\r\nCodec ID/Hint                    : XviD\r\nDuration                         : 1h 31mn\r\nBit rate                         : 1 459 Kbps\r\nWidth                            : 704 pixels\r\nHeight                           : 396 pixels\r\nDisplay aspect ratio             : 16:9\r\nFrame rate                       : 23.976 fps\r\nColor space                      : YUV\r\nChroma subsampling               : 4:2:0\r\nBit depth                        : 8 bits\r\nScan type                        : Progressive\r\nCompression mode                 : Lossy\r\nBits/(Pixel*Frame)               : 0.218\r\nStream size                      : 958 MiB (76%)\r\nWriting library                  : XviD 1.1.2 (UTC 2006-11-01)\r\n\r\nAudio:\r\n\r\nFormat                           : AC-3\r\nFormat/Info                      : Audio Coding 3\r\nMode extension                   : CM (complete main)\r\nCodec ID                         : 2000\r\nDuration                         : 1h 31mn\r\nBit rate mode                    : Constant\r\nBit rate                         : 448 Kbps\r\nChannel(s)                       : 6 channels\r\nChannel positions                : Front: L C R, Side: L R, LFE\r\nSampling rate                    : 48.0 KHz\r\nBit depth                        : 16 bits\r\nCompression mode                 : Lossy\r\nStream size                      : 294 MiB (23%)\r\nAlignment                        : Aligned on interleaves\r\nInterleave, duration             : 32 ms (0.77 video frame)
Cover/InSight.jpg 868.426 KB
Cover/www.Film-Test.nl.JPG 34.175 KB
InSight.avi 1.32 GB
Gathering some info...

Register and log in Isohunt and see no captcha anymore!

4000 symbols left
Hash 83183D1141655D228F917190F7C361DE26A83390

Related torrents for "InSight"