imdb
rating

5.5
100 Feet

100 Feet (2008)

Horror, Thriller

Full description
quality   dvdrip dvdr fullhd bd x264

100 Feet 2008 DVDrip English Skandale

Size 1.521 GB   0 seeders     Added 2012-08-10 02:56:50

Stream torrent
Starting‥ You need BitLord! Get it from BitLord.com
To download or stream you need BitLord. Visit them at BitLord.com
[IMG]image[/IMG]\r\nmet Famke Janssen, Ed Westwick en Bobby Cannavale\r\n\r\nMarnie Watson heeft celstraf gekregen toen ze haar eigen man, een politieman, heeft vermoord uit zelfverdediging. Maar Marnie wordt plotseling vervroegd vrijgelaten uit de gevangenis, aangezien ze met een elektronische band om haar been de rest van haar straf in haar eigen huis mag doorbrengen. Terwijl een collega van haar overleden man buiten haar huis in een auto zit te wachten tot ze de fout ingaat, ontdekt Marnie dat haar overleden man zelf nog steeds in het huis rondspookt. En hij wil niets liever dan wraak nemen.\r\n\r\nAfter Marnie Watson kills her abusive husband in self-defense, she is condemned to house arrest... only to discover that the house is possessed by the enraged and violent spirit of her dead husband.\r\n\r\nhttp://www.imdb.com/title/tt0899128/\r\n\r\n[COLOR=#DD0000]------------------------ Dutch Friends ------------------------\r\n---------------------------------------------------------------\r\n- Bezoek ook eens mijn vrienden op:  http://www.Film-Test.nl --\r\n----- voor mijn Nederlandse Sync. ondertitels ---- en meer ----\r\n------- http://www.Film-Test.nl ---- voor Films en meer -------\r\n---------------------------------------------------------------[/COLOR]\r\n\r\nGeneral\r\nComplete name                            : 100 Feet 2008.avi\r\nFormat                                   : AVI\r\nFormat/Info                              : Audio Video Interleave\r\nFile size                                : 1.42 GiB\r\nDuration                                 : 1h 32mn\r\nOverall bit rate                         : 2 194 Kbps\r\n\r\nVideo\r\nID                                       : 0\r\nFormat                                   : MPEG-4 Visual\r\nFormat profile                           : Simple@L3\r\nFormat settings, BVOP                    : No\r\nFormat settings, QPel                    : No\r\nFormat settings, GMC                     : No warppoints\r\nFormat settings, Matrix                  : Default (H.263)\r\nCodec ID                                 : XVID\r\nCodec ID/Hint                            : XviD\r\nDuration                                 : 1h 32mn\r\nSource duration                          : 1h 32mn\r\nBit rate                                 : 1 735 Kbps\r\nWidth                                    : 720 pixels\r\nHeight                                   : 304 pixels\r\nDisplay aspect ratio                     : 2.35:1\r\nFrame rate                               : 25.000 fps\r\nColor space                              : YUV\r\nChroma subsampling                       : 4:2:0\r\nBit depth                                : 8 bits\r\nScan type                                : Progressive\r\nCompression mode                         : Lossy\r\nBits/(Pixel*Frame)                       : 0.317\r\nStream size                              : 1.12 GiB (79%)\r\nWriting library                          : XviD 1.1.2 (UTC 2006-11-01)\r\n\r\nAudio\r\nID                                       : 1\r\nFormat                                   : AC-3\r\nFormat/Info                              : Audio Coding 3\r\nMode extension                           : CM (complete main)\r\nFormat settings, Endianness              : Big\r\nCodec ID                                 : 2000\r\nDuration                                 : 1h 32mn\r\nBit rate mode                            : Constant\r\nBit rate                                 : 448 Kbps\r\nChannel(s)                               : 6 channels\r\nChannel positions                        : Front: L C R, Side: L R, LFE\r\nSampling rate                            : 48.0 KHz\r\nBit depth                                : 16 bits\r\nCompression mode                         : Lossy\r\nStream size                              : 296 MiB (20%)\r\nAlignment                                : Aligned on interleaves\r\nInterleave, duration                     : 32 ms (0.80 video frame)\r\nInterleave, preload duration             : 256 ms
100 Feet 2008.avi 1.521 GB
Cover/100-Feet-Front-Cover.jpg 55.966 KB
flyer.jpg 33.678 KB
Gathering some info...

Register and log in Isohunt and see no captcha anymore!

4000 symbols left
Hash 16C7C6F9AB4F9B96247809DAAE9F1F665FB7B8E5

Related torrents for "100 Feet 2008 DVDrip English Skandale"

Torrent search:

dvdrip english 2008