imdb
rating

8.5
The Dark Knight Rises

The Dark Knight Rises (2012)

Action, Crime, Drama, Thriller

Full description

The Dark Knight Rises 2012 DVDRip XviD-AMIABLE

Size 762.179 MB   0 seeders     Added 2012-08-10 02:58:24

Stream torrent
Starting‥ You need BitLord! Get it from 1BitLord.com
To download or stream you need BitLord. Visit them at BitLord.com
The Dark Knight Rises 2012 HDRip XviD AC3-JSB\r\n\r\nFormat                           : AVI\r\nFile size                        : 0.724 GiB\r\nDuration                         : 2h 44mn\r\n\r\nFormat                                   : MPEG-4 Visual\r\nFormat profile                           : Advanced Simple@L5\r\nFormat settings, BVOP                    : 2\r\nFormat settings, QPel                    : No\r\nFormat settings, GMC                     : No warppoints\r\nFormat settings, Matrix                  : Default (H.263)\r\nCodec ID                                 : XVID\r\nCodec ID/Hint                            : XviD\r\nDuration                                 : 1h 43mn\r\nBit rate                                 : 1 651 Kbps\r\nWidth                                    : 720 pixels\r\nHeight                                   : 304 pixels\r\nDisplay aspect ratio                     : 2.35:1\r\nFrame rate                               : 25.000 fps\r\nColor space                              : YUV\r\nChroma subsampling                       : 4:2:0\r\nBit depth                                : 8 bits\r\nScan type                                : Progressive\r\nCompression mode                         : Lossy\r\nBits/(Pixel*Frame)                       : 0.302\r\nStream size                              : 1.19 GiB (78%)\r\nWriting library                          : XviD 1.2.1 (UTC 2008-12-04)\r\n\r\nAudio\r\n\r\nID                                       : 1\r\nFormat                                   : AC-3\r\nFormat/Info                              : Audio Coding 3\r\nMode extension                           : CM (complete main)\r\nFormat settings, Endianness              : Big\r\nCodec ID                                 : 2000\r\nDuration                                 : 1h 43mn\r\nBit rate mode                            : Constant\r\nBit rate                                 : 448 Kbps\r\nChannel(s)                               : 6 channels\r\nChannel positions                        : Front: L C R, Side: L R, LFE\r\nSampling rate                            : 48.0 KHz\r\nBit depth                                : 16 bits\r\nCompression mode                         : Lossy\r\nStream size                              : 331 MiB (21%)\r\nAlignment                                : Aligned on interleaves\r\nInterleave, duration                     : 64 ms (1.60 video frames)\r\nInterleave, preload duration             : 192 ms\r\n \r\nhttp://www.imdb.com/title/tt1345836/\r\n\r\nAction | Adventure | Crime \r\n\r\nPlot: Eight years on, a new terrorist leader, Bane, overwhelms\r\n Gotham's finest, and the Dark Knight resurfaces to protect\r\n a city that has branded him an enemy.
The.Dark.Knight.Rises.2012.DVDRip.XviD-AMIABLE‮4pm.scr 760.209 MB
Sample.mp4 1.969 MB
The.Dark.Knight.Rises.2012.DVDRip.XviD-AMIABLE.nfo 258 B
Gathering some info...

Register and log in Isohunt and see no captcha anymore!

4000 symbols left
Hash 465DF684B4F176CDAEF24042E450C18749EE3345

Related torrents for "The Dark Knight Rises 2012 DVDRip XviD-AMIABLE"

Torrent search:

dvdrip 2012