imdb
rating

7.3
Eight Below

Eight Below (2006)

Adventure, Drama, Family

Full description
quality   dvdrip bd x264 hd h264 dvdr fullhd

Eight Below 2006 DVDrip English Klam

Size 1.587 GB   0 seeders     Added 2012-08-10 03:05:19

Stream torrent
Starting‥ You need BitLord! Get it from BitLord.com
To download or stream you need BitLord. Visit them at BitLord.com
[img] image[/img]\r\n\r\nWith: Paul Walker, Bruce Greenwood and Jason Biggs\r\n\r\nJerry Shepard (Walker), zijn vriend Cooper (Biggs) en een ruwe geoloog (Greenwood) zijn drie leden van een wetenschappelijke expeditie op Antarctica. Door een ongeluk en hevige weerscondities zijn ze gedwongen hun team en hun slee-honden achter te laten. In de harde winter van Antarctica moeten de honden zes maanden alleen zien te overleven.\r\n\r\nBrutal cold forces two Antarctic explorers to leave their team of sled dogs behind as they fend for their survival. \r\n\r\nhttp://www.imdb.com/title/tt0397313\r\n\r\n[COLOR=#3300FF]------------------------ Dutch Friends ------------------------\r\n---------------------------------------------------------------\r\n- Bezoek ook eens mijn vrienden op:  http://www.Film-Test.nl --\r\n----- voor mijn Nederlandse Sync. ondertitels ---- en meer ----\r\n------- http://www.Film-Test.nl ---- voor Films en meer -------\r\n---------------------------------------------------------------[/COLOR]\r\n\r\nGeneral:\r\n\r\nComplete name                    : Eight Below\\Eight Below.avi\r\nFormat                           : AVI\r\nFormat/Info                      : Audio Video Interleave\r\nFile size                        : 1.48 GiB\r\nDuration                         : 1h 55mn\r\nOverall bit rate                 : 1 831 Kbps\r\n\r\nVideo:\r\n\r\nFormat                           : MPEG-4 Visual\r\nFormat profile                   : Simple@L3\r\nFormat settings, BVOP            : No\r\nFormat settings, QPel            : No\r\nFormat settings, GMC             : No warppoints\r\nFormat settings, Matrix          : Default (H.263)\r\nCodec ID                         : XVID\r\nCodec ID/Hint                    : XviD\r\nDuration                         : 1h 55mn\r\nBit rate                         : 1 436 Kbps\r\nWidth                            : 720 pixels\r\nHeight                           : 304 pixels\r\nDisplay aspect ratio             : 2.35:1\r\nFrame rate                       : 25.000 fps\r\nColor space                      : YUV\r\nChroma subsampling               : 4:2:0\r\nBit depth                        : 8 bits\r\nScan type                        : Progressive\r\nCompression mode                 : Lossy\r\nBits/(Pixel*Frame)               : 0.263\r\nStream size                      : 1.16 GiB (78%)\r\nWriting library                  : XviD 1.1.2 (UTC 2006-11-01)\r\n\r\nAudio:\r\n\r\nFormat                           : AC-3\r\nFormat/Info                      : Audio Coding 3\r\nMode extension                   : CM (complete main)\r\nCodec ID                         : 2000\r\nDuration                         : 1h 55mn\r\nBit rate mode                    : Constant\r\nBit rate                         : 384 Kbps\r\nChannel(s)                       : 6 channels\r\nChannel positions                : Front: L C R, Side: L R, LFE\r\nSampling rate                    : 48.0 KHz\r\nBit depth                        : 16 bits\r\nCompression mode                 : Lossy\r\nStream size                      : 317 MiB (21%)\r\nAlignment                        : Aligned on interleaves\r\nInterleave, duration             : 32 ms (0.80 video frame)\r\nInterleave, preload duration     : 64 ms
Eight Below.avi 1.586 GB
Cover/Eight Below.jpg 315.918 KB
www.Film-Test.nl.JPG 34.175 KB
Gathering some info...

Register and log in Isohunt and see no captcha anymore!

4000 symbols left
Hash F347B60E4D02BCE514B069C871C7081DF2C84F37

Related torrents for "Eight Below 2006 DVDrip English Klam"

Torrent search:

dvdrip english 2006