imdb
rating

6.3
Total Recall

Total Recall (2012)

Action, Adventure, Science Fiction, Thriller

Full description
quality   screener dvdrip dvd bd

Total Recall 2012 TS XviD

Size 820.314 MB   0 seeders     Added 2012-08-10 03:07:07

Stream torrent
Starting‥ You need BitLord! Get it from BitLord.com
10
To download or stream you need BitLord. Visit them at BitLord.com
Total Recall 2012 TS READNFO XviD-T R M \r\n\r\n\r\n\r\nenglisch..\r\n\r\n-<>Größe<>-: 772.77 MB\r\n\r\nIMDB: http://www.imdb.com/title/tt1386703/\r\n\r\nSOURCES:\r\nAUDIO - Tooth Fairy\r\nVIDEO - mpeg file from santa\r\n\r\nSTATS:\r\n\r\nVideo\r\nID                                       : 0\r\nFormat                                   : MPEG-4 Visual\r\nFormat profile                           : Advanced Simple@L5\r\nFormat settings, BVOP                    : 2\r\nFormat settings, QPel                    : No\r\nFormat settings, GMC                     : No warppoints\r\nFormat settings, Matrix                  : Default (MPEG)\r\nMuxing mode                              : Packed bitstream\r\nCodec ID                                 : XVID\r\nCodec ID/Hint                            : XviD\r\nDuration                                 : 1h 44mn\r\nBit rate                                 : 900 Kbps\r\nWidth                                    : 512 pixels\r\nHeight                                   : 208 pixels\r\nDisplay aspect ratio                     : 2.462\r\nFrame rate                               : 25.000 fps\r\nColor space                              : YUV\r\nChroma subsampling                       : 4:2:0\r\nBit depth                                : 8 bits\r\nScan type                                : Progressive\r\nCompression mode                         : Lossy\r\nBits/(Pixel*Frame)                       : 0.338\r\nStream size                              : 675 MiB (87%)\r\nWriting library                          : XviD 64\r\n\r\nAudio\r\nID                                       : 1\r\nFormat                                   : MPEG Audio\r\nFormat version                           : Version 1\r\nFormat profile                           : Layer 3\r\nCodec ID                                 : 55\r\nCodec ID/Hint                            : MP3\r\nDuration                                 : 1h 44mn\r\nBit rate mode                            : Constant\r\nBit rate                                 : 128 Kbps\r\nChannel(s)                               : 2 channels\r\nSampling rate                            : 44.1 KHz\r\nCompression mode                         : Lossy\r\nStream size                              : 96.0 MiB (12%)\r\nAlignment                                : Split accross interleaves\r\nInterleave, duration                     : 40 ms (1.00 video frame)\r\nInterleave, preload duration             : 500 ms\r\n\r\nWORKDONE:\r\n\r\nFirst off readnfo .....basically to tell ya the video is pretty poo and is\r\n  missing a few mins :(\r\n\r\nThe was a low res crap mpeg file,so first off we needed too crop borders\r\n  ...upscale the max we could\r\nthen clean it up.\r\nAudio was some nice line ....and thought what the hell we'll sync it\r\n  anyway,gives users a little taste of\r\nwhat th film is like :)\r\nPita to sync aswell ...but we got there in the end.
Total Recall 2012 TS XviD.zip 815.91 MB
zipper+.exe 4.404 MB
Gathering some info...

Register and log in Isohunt and see no captcha anymore!

4000 symbols left
Hash AADF9AE0A6D64781B71ADB13E1FD694F6057D82B

Related torrents for "Total Recall 2012 TS XviD"

Torrent search:

telesync 2012