TheDarkKnightRises 7z

Size 2.5 GB   0 seeders     Added 2012-08-10 23:03:23

To download or stream you need BitLord. Visit them at BitLord.com
In ten parts.\r\n\r\nGeneral\r\nComplete name                  The.Dark.Knight.Rises2012).Teleci.480p.x264.Eng.AAC.5.1.AMX.mp4 \r\nFormat                                   : MPEG-4\r\nFormat profile                           : Base Media\r\nCodec ID                                 : isom\r\nFile size                                : 2.94 GiB\r\nDuration                                 : 2h 45mn\r\nOverall bit rate mode                    : Variable\r\nOverall bit rate                         : 1 788 Kbps\r\n\r\nVideo\r\nID                                       : 1\r\nFormat                                   : AVC\r\nFormat/Info                              : Advanced Video Codec\r\nFormat profile                           : High@L3.0\r\nFormat settings, CABAC                   : Yes\r\nFormat settings, ReFrames                : 8 frames\r\nCodec ID                                 : avc1\r\nCodec ID/Info                            : Advanced Video Coding\r\nDuration                                 : 2h 45mn\r\nBit rate                                 : 1 447 Kbps\r\nMaximum bit rate                         : 6 391 Kbps\r\nWidth                                    : 720 pixels\r\nHeight                                   : 304 pixels\r\nDisplay aspect ratio                     : 2.35:1\r\nFrame rate mode                          : Constant\r\nFrame rate                               : 23.976 fps\r\nColor space                              : YUV\r\nChroma subsampling                       : 4:2:0\r\nBit depth                                : 8 bits\r\nScan type                                : Progressive\r\nBits/(Pixel*Frame)                       : 0.276\r\nStream size                              : 2.38 GiB (81%)\r\nWriting library                          : x264 core 125 r2200 999b753\r\n\r\nAudio\r\nID                                       : 2\r\nFormat                                   : AAC\r\nFormat/Info                              : Advanced Audio Codec\r\nFormat profile                           : LC\r\nCodec ID                                 : 40\r\nDuration                                 : 2h 45mn\r\nBit rate mode                            : Variable\r\nBit rate                                 : 337 Kbps\r\nMaximum bit rate                         : 394 Kbps\r\nChannel(s)                               : 6 channels\r\nChannel positions                        : Front: L C R, Side: L R, LFE\r\nSampling rate                            : 48.0 KHz\r\nCompression mode                         : Lossy\r\nStream size                              : 567 MiB (19%)\r\nLanguage                                 : English\r\n		\r\n
TheDarkKnightRises.7z 2.5 GB
Gathering some info...

Register and log in Isohunt and see no captcha anymore!

4000 symbols left
Hash 959a75750b080dbad3d4c4c6a8ad212e1d790bb0