imdb
rating

5.7
Sparkle

Sparkle (2012)

Drama, Music

Full description

Sparkle (2012) BRRip 1080p x264 AAC - KiNGDOM

Size 1.12 GB   0 seeders     Added 2012-08-20 18:07:47

Stream torrent
Starting‥ You need BitLord! Get it from 1BitLord.com
To download or stream you need BitLord. Visit them at BitLord.com
Sparkle (2012) BRRip 1080p x264 AAC - KiNGDOM\r\n\r\nVideo\r\nID : 0\r\nFormat : MPEG-4 Visual\r\nFormat profile : Advanced Simple@L5\r\nFormat settings, BVOP : 2\r\nFormat settings, QPel : No\r\nFormat settings, GMC : No warppoints\r\nFormat settings, Matrix : Default (H.263)\r\nMuxing mode : Packed bitstream\r\nCodec ID : XVID\r\nCodec ID/Hint : XviD\r\nDuration : 1h 36mn\r\nBit rate : 1 573 Kbps\r\nWidth : 720 pixels\r\nHeight : 304 pixels\r\nDisplay aspect ratio : 2.35:1\r\nFrame rate : 23.976 fps\r\nColor space : YUV\r\nChroma subsampling : 4:2:0\r\nBit depth : 8 bits\r\nScan type : Progressive\r\nCompression mode : Lossy\r\nBits/(Pixel*Frame) : 0.300\r\nStream size : 1.06 GiB (77%)\r\nWriting library : XviD 64\r\n\r\nAudio\r\nID : 1\r\nFormat : AC-3\r\nFormat/Info : Audio Coding 3\r\nMode extension : CM (complete main)\r\nFormat settings, Endianness : Big\r\nCodec ID : 2000\r\nDuration : 1h 36mn\r\nBit rate mode : Constant\r\nBit rate : 448 Kbps\r\nChannel(s) : 6 channels\r\nChannel positions : Front: L C R, Side: L R, LFE\r\nSampling rate : 48.0 KHz\r\nBit depth : 16 bits\r\nCompression mode : Lossy\r\nStream size : 309 MiB (22%)\r\nAlignment : Aligned on interleaves\r\nInterleave, duration : 42 ms (1.00 video frame)
Sparkle (2012) BRRip 1080p x264 AAC - KiNGDOM/ExtraTorrent Sample 1.515 MB
Sparkle (2012) BRRip 1080p x264 AAC - KiNGDOM/MOVIE INFO.nfo 4.858 KB
Sparkle (2012) BRRip 1080p x264 AAC - KiNGDOM/Sparkle (2012) BRRip 1080p x264 AAC - KiNGDOM.avi 1.119 GB
Gathering some info...

Register and log in Isohunt and see no captcha anymore!

4000 symbols left
Hash 029405aea70d52feb4231363f505cc08593eba2a

Related torrents for "Sparkle (2012) BRRip 1080p x264 AAC - KiNGDOM"

Torrent search:

x264 2012 fullhd bd