imdb
rating

8.5
The Dark Knight Rises

The Dark Knight Rises (2012)

Action, Crime, Drama, Thriller

Full description

The Dark Knight Rises 2012 FRENCH DVDRiP XviD - NYDIC

Size 738.487 MB   0 seeders     Added 2012-08-23 02:15:39

Stream torrent
Starting‥ You need BitLord! Get it from BitLord.com
To download or stream you need BitLord. Visit them at BitLord.com
[IMG]image[/IMG]\r\n \r\nTITLE: \r\n\r\nThe Dark Knight Rises 2012 FRENCH DVDRiP XviD - NYDIC\r\n\r\nIMDB: \r\n\r\nhttp://www.imdb.com/title/tt1345836/\r\n\r\n\r\nSTATS:\r\n\r\nVideo\r\nID                               : 0\r\nFormat                           : MPEG-4 Visual\r\nFormat profile                   : Advanced Simple@L5\r\nFormat settings, BVOP            : 2\r\nFormat settings, QPel            : No\r\nFormat settings, GMC             : No warppoints\r\nFormat settings, Matrix          : Default (MPEG)\r\nMuxing mode                      : Packed bitstream\r\nCodec ID                         : XVID\r\nCodec ID/Hint                    : XviD\r\nDuration                         : 1h 54mn\r\nBit rate                         : 986 Kbps\r\nWidth                            : 720 pixels\r\nHeight                           : 320 pixels\r\nDisplay aspect ratio             : 2.25:1\r\nFrame rate                       : 29.970 fps\r\nColor space                      : YUV\r\nChroma subsampling               : 4:2:0\r\nBit depth                        : 8 bits\r\nScan type                        : Progressive\r\nCompression mode                 : Lossy\r\nBits/(Pixel*Frame)               : 0.243\r\nStream size                      : 700 MiB (92%)\r\nWriting library                  : XviD 64\r\n\r\nAudio\r\n\r\nFormat                           : MPEG Audio\r\nFormat version                   : Version 1\r\nFormat profile                   : Layer 3\r\nMode                             : Joint stereo\r\nMode extension                   : MS Stereo\r\nCodec ID                         : 55\r\nCodec ID/Hint                    : MP3\r\nDuration                         : 1h 54mn\r\nBit rate mode                    : Constant\r\nBit rate                         : 128 Kbps\r\nChannel(s)                       : 2 channels\r\nSampling rate                    : 48.0 KHz\r\nCompression mode                 : Lossy\r\nStream size                      : 51 MiB (7%)\r\nAlignment                        : Split accross interleaves\r\nInterleave, duration             : 33 ms (1.00 video frame)\r\nInterleave, preload duration     : 500 ms\r\n\r\n\r\nSCREENS:\r\n\r\n[IMG]image[/IMG]\r\n[IMG]image[/IMG]\r\n[IMG]image[/IMG]\r\n...\r\n\r\n\r\n\r\n\r\n
The Dark Knight Rises 2012 FRENCH DVDRiP XviD - NYDIC/cover.jpg 73.998 KB
The Dark Knight Rises 2012 FRENCH DVDRiP XviD - NYDIC/screenshots01.png 660.819 KB
The Dark Knight Rises 2012 FRENCH DVDRiP XviD - NYDIC/screenshots02.png 62.55 KB
Gathering some info...

Register and log in Isohunt and see no captcha anymore!

4000 symbols left
Hash 00f9dbdfe9fad15d1dc487eaa71326ddca8bc9f3

Related torrents for "The Dark Knight Rises 2012 FRENCH DVDRiP XviD - NYDIC"

Torrent search:

dvdrip french 2012