Casa de mi Padre 2012 FRENCH DVDRip XviD SQTV

Size 738.169 MB   0 seeders     Added 2012-08-24 18:34:58

To download or stream you need BitLord. Visit them at BitLord.com
[IMG]image[/IMG]
 
TITLE: 

Casa de mi Padre (2012) FRENCH DVDRip XviD - SQTV

IMDB: 

http://www.imdb.com/title/tt1702425/


STATS:

Video
ID                               : 0
Format                           : MPEG-4 Visual
Format profile                   : Advanced Simple@L5
Format settings, BVOP            : 2
Format settings, QPel            : No
Format settings, GMC             : No warppoints
Format settings, Matrix          : Default (MPEG)
Muxing mode                      : Packed bitstream
Codec ID                         : XVID
Codec ID/Hint                    : XviD
Duration                         : 1h 24mn
Bit rate                         : 986 Kbps
Width                            : 720 pixels
Height                           : 320 pixels
Display aspect ratio             : 2.25:1
Frame rate                       : 29.970 fps
Color space                      : YUV
Chroma subsampling               : 4:2:0
Bit depth                        : 8 bits
Scan type                        : Progressive
Compression mode                 : Lossy
Bits/(Pixel*Frame)               : 0.243
Stream size                      : 700 MiB (92%)
Writing library                  : XviD 64

Audio

Format                           : MPEG Audio
Format version                   : Version 1
Format profile                   : Layer 3
Mode                             : Joint stereo
Mode extension                   : MS Stereo
Codec ID                         : 55
Codec ID/Hint                    : MP3
Duration                         : 1h 24mn
Bit rate mode                    : Constant
Bit rate                         : 128 Kbps
Channel(s)                       : 2 channels
Sampling rate                    : 48.0 KHz
Compression mode                 : Lossy
Stream size                      : 51 MiB (7%)
Alignment                        : Split accross interleaves
Interleave, duration             : 33 ms (1.00 video frame)
Interleave, preload duration     : 500 ms


SCREENS:

[IMG]image[/IMG]
[IMG]image[/IMG]
[IMG]image[/IMG]






Casa de mi Padre (2012) FRENCH DVDRip XviD - SQTV/Casa de mi Padre (2012) FRENCH DVDRip XviD - SQTV.nfo 2.214 KB
Casa de mi Padre (2012) FRENCH DVDRip XviD - SQTV/Casa de mi Padre (2012) FRENCH DVDRip XviD - SQTV/Casa de mi Padre (2012) FRENCH DVDRip XviD - SQTV.rar 736.916 MB
Casa de mi Padre (2012) FRENCH DVDRip XviD - SQTV/cover.jpg 102.028 KB
Gathering some info...

Register and log in Isohunt and see no captcha anymore!

4000 symbols left
Hash b2f188107b6911b415aca77b22fbba2fb25416e7

Related torrents for "Casa de mi Padre 2012 FRENCH DVDRip XviD SQTV"

Torrent search:

french 2012