Magic Mike 2012 R5 LiNE XviD-YanKeeS

Size 1.239 GB   0 seeders     Added 2012-08-24 18:57:08

To download or stream you need BitLord. Visit them at BitLord.com
http://www.imdb.com/title/tt1915581/

Magic Mike 2012 R5 LiNE XviD-YanKeeS

General
Complete name: Magic Mike 2012 R5 LiNE XviD-YanKeeS.avi
Format: AVI
Format/Info: Audio Video Interleave
File size: 700 mb
Duration: 1h 40mn
Overall bit rate: 2 572 Kbps

Video
ID: 0
Format: MPEG-4 Visual
Format profile: Advanced Simple@L5
Format settings, BVOP: 1
Format settings, QPel: No
Format settings, GMC: No warppoints
Format settings, Matrix: Default (H.263)
Codec ID: XVID
Codec ID/Hint: XviD
Duration: 1h 20mn
Bit rate: 2 181 Kbps
Width: 720 pixels
Height: 304 pixels
Display aspect ratio: 2.35:1
Frame rate: 23.976 fps
Color space: YUV
Chroma subsampling: 4:2:0
Bit depth: 8 bits
Scan type: Progressive
Compression mode: Lossy
Bits/(Pixel*Frame): 0.416
Stream size: 1.23 GiB (85%)
Writing library: XviD 1.2.1 (UTC 2008-12-04)

Audio
ID: 1
Format: AC-3
Format/Info: Audio Coding 3
Mode extension: CM (complete main)
Codec ID: 2000
Duration: 1h 20mn
Bit rate mode: Constant
Bit rate: 384 Kbps
Channel(s): 2 channels
Channel positions: Front: L R
Sampling rate: 48.0 KHz
Bit depth: 16 bits
Compression mode: Lossy
Stream size: 222 MiB (15%)
Alignment: Aligned on interleaves
Interleave, duration: 64 ms (1.53 video frames)
Interleave, preload duration: 192 ms
Title: VTS_01_1 T80 2_0ch 384Kbps DELAY -454ms

SOURCE:
Physical Blueray
Magic Mike 2012 R5 LiNE XviD-YanKeeS/Magic Mike 2012 R5 LiNE XviD-YanKeeS.zip 1.239 GB
Magic Mike 2012 R5 LiNE XviD-YanKeeS/Readme.txt 98 B
Magic Mike 2012 R5 LiNE XviD-YanKeeS/Subs[ENG].srt.srt 66.326 KB
Gathering some info...

Register and log in Isohunt and see no captcha anymore!

4000 symbols left
Hash dd439d6f48fdee45b21eb972decae6fc82f32007