imdb
rating

5.8
Straw Dogs

Straw Dogs (2011)

Thriller

Full description
quality   dvdrip bd x264 fullhd

Straw Dogs 2011 DVDrip English Skandale

Size 1.143 GB   0 seeders     Added 2012-08-27 03:09:03

Stream torrent
Starting‥ You need BitLord! Get it from 1BitLord.com
To download or stream you need BitLord. Visit them at BitLord.com
[IMG]image[/IMG]\r\nmet Alexander Skarsgård, James Marsden en Kate Bosworth\r\n\r\nDavid en Amy Sumner (James Marsden en Kate Bosworth), een Hollywood-scenarist en een actrice, keren terug keren naar hun geboortestad in het diepe zuiden. Amy's vader is overleden en ze gaan het ouderlijke huis klaarmaken om te verkopen. Eenmaal daar lopen de spanningen in hun huwelijk op en worden er conflicten met de lokale bevolking uit het verleden opgerakeld. Wanneer Amy's ex-vriend Charlie (Alexander Skarsgård) er bij betrokken raakt, ontstaat er een gewelddadige confrontatie.\r\n\r\nL.A. screenwriter David Sumner relocates with his wife to her hometown in the deep South. There, while tensions build between them, a brewing conflict with locals becomes a threat to them both.\r\n\r\nhttp://www.imdb.com/title/tt0999913/\r\n\r\n[COLOR=#33CC00]------------------------ Dutch Friends ------------------------\r\n---------------------------------------------------------------\r\n- Bezoek ook eens mijn vrienden op:  http://www.Film-Test.nl --\r\n----- voor mijn Nederlandse Sync. ondertitels ---- en meer ----\r\n------- http://www.Film-Test.nl ---- voor Films en meer -------\r\n---------------------------------------------------------------[/COLOR]\r\n\r\nGeneral\r\nComplete name                            : Straw Dogs 2011.avi\r\nFormat                                   : AVI\r\nFormat/Info                              : Audio Video Interleave\r\nFile size                                : 1.06 GiB\r\nDuration                                 : 1h 45mn\r\nOverall bit rate                         : 1 449 Kbps\r\n\r\nVideo\r\nID                                       : 0\r\nFormat                                   : MPEG-4 Visual\r\nFormat profile                           : Simple@L3\r\nFormat settings, BVOP                    : No\r\nFormat settings, QPel                    : No\r\nFormat settings, GMC                     : No warppoints\r\nFormat settings, Matrix                  : Default (H.263)\r\nCodec ID                                 : XVID\r\nCodec ID/Hint                            : XviD\r\nDuration                                 : 1h 45mn\r\nSource duration                          : 1h 45mn\r\nBit rate                                 : 990 Kbps\r\nWidth                                    : 720 pixels\r\nHeight                                   : 304 pixels\r\nDisplay aspect ratio                     : 2.35:1\r\nFrame rate                               : 25.000 fps\r\nColor space                              : YUV\r\nChroma subsampling                       : 4:2:0\r\nBit depth                                : 8 bits\r\nScan type                                : Progressive\r\nCompression mode                         : Lossy\r\nBits/(Pixel*Frame)                       : 0.181\r\nStream size                              : 745 MiB (68%)\r\nWriting library                          : XviD 1.1.2 (UTC 2006-11-01)\r\n\r\nAudio\r\nID                                       : 1\r\nFormat                                   : AC-3\r\nFormat/Info                              : Audio Coding 3\r\nMode extension                           : CM (complete main)\r\nFormat settings, Endianness              : Big\r\nCodec ID                                 : 2000\r\nDuration                                 : 1h 45mn\r\nBit rate mode                            : Constant\r\nBit rate                                 : 448 Kbps\r\nChannel(s)                               : 6 channels\r\nChannel positions                        : Front: L C R, Side: L R, LFE\r\nSampling rate                            : 48.0 KHz\r\nBit depth                                : 16 bits\r\nCompression mode                         : Lossy\r\nStream size                              : 337 MiB (31%)\r\nAlignment                                : Aligned on interleaves\r\nInterleave, duration                     : 32 ms (0.80 video frame)
Straw Dogs 2011.avi 1.143 GB
Cover/Straw-Dogs-2011-Front-Cover-61444.jpg 55.556 KB
flyer.jpg 33.678 KB
Gathering some info...

Register and log in Isohunt and see no captcha anymore!

4000 symbols left
Hash F02FF4D0CA9BC1577F34E3FA13BE52BD1F50AEC7

Related torrents for "Straw Dogs 2011 DVDrip English Skandale"

Torrent search:

dvdrip english 2011