imdb
rating

6.7
Like Crazy

Like Crazy (2011)

Drama, Romance

Full description
quality   telesync screener

Like Crazy

Size 1.301 GB   0 seeders     Added 2012-08-27 03:14:14

Stream torrent
Starting‥ You need BitLord! Get it from BitLord.com
To download or stream you need BitLord. Visit them at BitLord.com
[img] image[/img]

With: Anton Yelchin, Felicity Jones and Jennifer Lawrence

Jacob, een Amerikaan, en Anna, een Britse, ontmoeten elkaar op een hogeschool in Los Angeles en worden smoorverliefd op elkaar. Het is de zuiverste vorm van romantiek – voor beiden is het de eerste betekenisvolle relatie. Wanneer Anna naar Londen terugkeert wordt het koppel gedwongen om een langeafstandsrelatie aan te gaan. Hun perfecte liefde wordt getest, en hun jeugdigheid, vertrouwen en geografie worden hun ergste vijanden.

A British college student falls for an American student, only to be separated from him when she's banned from the U.S. after overstaying her visa. 

http://www.imdb.com/title/tt1758692

[COLOR=#3300FF]------------------------ Dutch Friends ------------------------
---------------------------------------------------------------
- Bezoek ook eens mijn vrienden op:  http://www.Film-Test.nl --
----- voor mijn Nederlandse Sync. ondertitels ---- en meer ----
------- http://www.Film-Test.nl ---- voor Films en meer -------
---------------------------------------------------------------[/COLOR]

General:

Complete name                    : Like Crazy\Like Crazy.avi
Format                           : AVI
Format/Info                      : Audio Video Interleave
File size                        : 1.21 GiB
Duration                         : 1h 26mn
Overall bit rate                 : 2 009 Kbps

Video:

Format                           : MPEG-4 Visual
Format profile                   : Simple@L3
Format settings, BVOP            : No
Format settings, QPel            : No
Format settings, GMC             : No warppoints
Format settings, Matrix          : Default (H.263)
Codec ID                         : XVID
Codec ID/Hint                    : XviD
Duration                         : 1h 26mn
Bit rate                         : 1 551 Kbps
Width                            : 704 pixels
Height                           : 396 pixels
Display aspect ratio             : 16:9
Frame rate                       : 25.000 fps
Color space                      : YUV
Chroma subsampling               : 4:2:0
Bit depth                        : 8 bits
Scan type                        : Progressive
Compression mode                 : Lossy
Bits/(Pixel*Frame)               : 0.222
Stream size                      : 958 MiB (77%)
Writing library                  : XviD 1.1.2 (UTC 2006-11-01)

Audio:

Format                           : AC-3
Format/Info                      : Audio Coding 3
Mode extension                   : CM (complete main)
Codec ID                         : 2000
Duration                         : 1h 26mn
Bit rate mode                    : Constant
Bit rate                         : 448 Kbps
Channel(s)                       : 6 channels
Channel positions                : Front: L C R, Side: L R, LFE
Sampling rate                    : 48.0 KHz
Bit depth                        : 16 bits
Compression mode                 : Lossy
Stream size                      : 277 MiB (22%)
Alignment                        : Aligned on interleaves
Interleave, duration             : 32 ms (0.80 video frame)
Interleave, preload duration     : 160 ms
Like Crazy.avi 1.301 GB
Cover/Like Crazy.jpg 77.29 KB
www.Film-Test.nl.JPG 34.175 KB
Gathering some info...

Register and log in Isohunt and see no captcha anymore!

4000 symbols left
Hash A204CA9C885F2E10CD5CF34C9D3ABA5F294542BC

Related torrents for "Like Crazy"