imdb
rating

4.6
Freelancers

Freelancers (2012)

Action, Crime, Drama, Mystery

Full description
quality   dvdrip cam telesync dvd bd x264 hd

Freelancers 2012 DVDRiP XviD ILLUMINATI

Size 1.486 GB   0 seeders     Added 2012-08-27 03:15:45

Stream torrent
Starting‥ You need BitLord! Get it from 1BitLord.com
To download or stream you need BitLord. Visit them at BitLord.com
Looking for fast download speeds come join http://dream-torrents.com for all the latest releases, with friendly staff online radio and games and much much more.
-
-
.Video
ID : 0
Format : MPEG-4 Visual
Format profile : Advanced Simple@L5
Format settings, BVOP : 2
Format settings, QPel : No
Format settings, GMC : No warppoints
Format settings, Matrix : Default (H.263)
Muxing mode : Packed bitstream
Codec ID : XVID
Codec ID/Hint : XviD
Duration : 1h 36mn
Bit rate : 1 573 Kbps
Width : 720 pixels
Height : 304 pixels
Display aspect ratio : 2.35:1
Frame rate : 23.976 fps
Color space : YUV
Chroma subsampling : 4:2:0
Bit depth : 8 bits
Scan type : Progressive
Compression mode : Lossy
Bits/(Pixel*Frame) : 0.300
Stream size : 1.06 GiB (77%)
Writing library : XviD 64
Audio
ID : 1
Format : AC-3
Format/Info : Audio Coding 3
Mode extension : CM (complete main)
Format settings, Endianness : Big
Codec ID : 2000
Duration : 1h 36mn
Bit rate mode : Constant
Bit rate : 448 Kbps
Channel(s) : 6 channels
Channel positions : Front: L C R, Side: L R, LFE
Sampling rate : 48.0 KHz
Bit depth : 16 bits
Compression mode : Lossy
Stream size : 309 MiB (22%)
Alignment : Aligned on interleaves
Interleave, duration : 42 ms (1.00 video frame)
Source: Retail R1 DVD
IMDB: http://www.imdb.com/title/tt1815708/


The son of a slain NYPD officer joins the force, where he falls in with his father's former partner and a team of rogue cops.
Freelancers 2012 DVDRiP XviD - ILLUMINATI.avi 1.47 GB
Freelancers 2012 DVDRiP XviD - ILLUMINATI.nfo 2.52 KB
sample.avi 16.246 MB
Gathering some info...

Register and log in Isohunt and see no captcha anymore!

4000 symbols left
Hash B49A458FCE0C46974592556F3256CC4F6C6DD78D

Related torrents for "Freelancers 2012 DVDRiP XviD ILLUMINATI"

Torrent search:

dvdrip 2012