imdb
rating

4.9
Cursed

Cursed (2005)

Comedy, Horror

Full description
quality   dvdrip hd bd x264 hdtv

Cursed

Size 1.495 GB   0 seeders     Added 2012-08-27 03:16:31

Stream torrent
Starting‥ You need BitLord! Get it from BitLord.com
To download or stream you need BitLord. Visit them at BitLord.com
[img] image[/img]\r\n\r\nWith: Christina Ricci, Joshua Jackson and Jesse Eisenberg\r\n\r\nTijdens een heldere nacht met volle maan verliezen Ellie (Christina Ricci) en haar broer Jimmy de macht over het stuur en daardoor stort een andere weggebruikster met haar auto in een ravijn. Ze proberen haar te helpen, maar tijdens deze reddingsoperatie worden broer en zus gebeten door een hondachtig wezen. Sindsdien is hun leven niet meer hetzelfde. Het ongeluk blijkt veel meer dan een noodlottige samenloop van omstandigheden. De broer en zus beschikken plotseling over onverklaarbare lichamelijke krachten en zijn allebei enorm prikkelbaar. Ze worden beheerst door oncontroleerbare impulsen en kunnen hun nieuwe dierlijke 'gaven' maar moeilijk in bedwang houden. Het mysterie rond hun vloek moet opgelost worden voordat alles en iedereen meegesleurd wordt in de gevaarlijke klauwen van dit krachtige kwaad.\r\n\r\nA werewolf loose in Los Angeles changes the lives of three young adults, who, after being mauled by the beast, learn they must kill their attacker if they hope to change their fate to avoid becoming werewolves too. \r\n\r\nhttp://www.imdb.com/title/tt0257516\r\n\r\n[COLOR=#3300FF]------------------------ Dutch Friends ------------------------\r\n---------------------------------------------------------------\r\n- Bezoek ook eens mijn vrienden op:  http://www.Film-Test.nl --\r\n----- voor mijn Nederlandse Sync. ondertitels ---- en meer ----\r\n------- http://www.Film-Test.nl ---- voor Films en meer -------\r\n---------------------------------------------------------------\r\n[/COLOR]\r\nGeneral:\r\n\r\nComplete name                    : Cursed\\Cursed.avi\r\nFormat                           : AVI\r\nFormat/Info                      : Audio Video Interleave\r\nFile size                        : 1.39 GiB\r\nDuration                         : 1h 33mn\r\nOverall bit rate                 : 2 137 Kbps\r\n\r\nVideo:\r\n\r\nFormat                           : MPEG-4 Visual\r\nFormat profile                   : Simple@L3\r\nFormat settings, BVOP            : No\r\nFormat settings, QPel            : No\r\nFormat settings, GMC             : No warppoints\r\nFormat settings, Matrix          : Default (H.263)\r\nCodec ID                         : XVID\r\nCodec ID/Hint                    : XviD\r\nDuration                         : 1h 33mn\r\nBit rate                         : 1 678 Kbps\r\nWidth                            : 720 pixels\r\nHeight                           : 304 pixels\r\nDisplay aspect ratio             : 2.35:1\r\nFrame rate                       : 25.000 fps\r\nColor space                      : YUV\r\nChroma subsampling               : 4:2:0\r\nBit depth                        : 8 bits\r\nScan type                        : Progressive\r\nCompression mode                 : Lossy\r\nBits/(Pixel*Frame)               : 0.307\r\nStream size                      : 1.09 GiB (79%)\r\nWriting library                  : XviD 1.1.2 (UTC 2006-11-01)\r\n\r\nAudio:\r\n\r\nFormat                           : AC-3\r\nFormat/Info                      : Audio Coding 3\r\nMode extension                   : CM (complete main)\r\nCodec ID                         : 2000\r\nDuration                         : 1h 33mn\r\nBit rate mode                    : Constant\r\nBit rate                         : 448 Kbps\r\nChannel(s)                       : 6 channels\r\nChannel positions                : Front: L C R, Side: L R, LFE\r\nSampling rate                    : 48.0 KHz\r\nBit depth                        : 16 bits\r\nCompression mode                 : Lossy\r\nStream size                      : 299 MiB (21%)\r\nAlignment                        : Aligned on interleaves\r\nInterleave, duration             : 32 ms (0.80 video frame)\r\nInterleave, preload duration     : 64 ms
Cursed.avi 1.495 GB
Cover/Cursed.jpg 463.968 KB
www.Film-Test.nl.JPG 34.175 KB
Gathering some info...

Register and log in Isohunt and see no captcha anymore!

4000 symbols left
Hash F060EAA44914A8FCE724507753048775A8DFFC6B

Related torrents for "Cursed"