imdb
rating

6.7
The Expendables 2

The Expendables 2 (2012)

Action, Adventure, Thriller

Full description

The Expendables 2 2012 Dvdscr AMS

Size 739.246 MB   0 seeders     Added 2012-08-27 16:29:36

Stream torrent
Starting‥ You need BitLord! Get it from BitLord.com
To download or stream you need BitLord. Visit them at BitLord.com
image

Format                                   : AVI
Format/Info                              : Audio Video Interleave
File size                                : 1.24 GiB
Duration                                 : 1h 36mn
Overall bit rate                         : 1 842 Kbps

Video
ID                                       : 0
Format                                   : MPEG-4 Visual
Format profile                           : Advanced Simple@L5
Format settings, BVOP                    : 2
Format settings, QPel                    : No
Format settings, GMC                     : No warppoints
Format settings, Matrix                  : Default (H.263)
Codec ID                                 : XVID
Codec ID/Hint                            : XviD
Duration                                 : 1h 36mn
Bit rate                                 : 1 450 Kbps
Width                                    : 720 pixels
Height                                   : 256 pixels
Display aspect ratio                     : 2.813
Frame rate                               : 25.000 fps
Color space                              : YUV
Chroma subsampling                       : 4:2:0
Bit depth                                : 8 bits
Scan type                                : Progressive
Compression mode                         : Lossy
Bits/(Pixel*Frame)                       : 0.315
Stream size                              : 1 001 MiB (79%)
Writing library                          : XviD 1.2.1 (UTC 2008-12-04)

Audio
ID                                       : 1
Format                                   : AC-3
Format/Info                              : Audio Coding 3
Mode extension                           : CM (complete main)
Codec ID                                 : 2000
Duration                                 : 1h 36mn
Bit rate mode                            : Constant
Bit rate                                 : 384 Kbps
Channel(s)                               : 6 channels
Channel positions                        : Front: L C R, Side: L R, LFE
Sampling rate                            : 48.0 KHz
Bit depth                                : 16 bits
Compression mode                         : Lossy
Stream size                              : 265 MiB (21%)
Alignment                                : Aligned on interleaves
Interleave, duration                     : 64 ms (1.60 video frames)
Interleave, preload duration             : 192 ms
Title                                    : The Expendables 2 2012 Dvdscr AMS

http://www.imdb.com/title/tt1764651/




Ratings: 7.9/10 from 9,777 users   Metascore: 53/100
Reviews: 69 user | 19 critic | 22 from Metacritic.com

Mr. Church reunites the Expendables for what should be an easy paycheck,
but when one of their men is murdered on the job, their quest for revenge puts
them deep in enemy territory and up against an unexpected threat.

Director:
Simon West
Writers:
Richard Wenk (screenplay), Sylvester Stallone (screenplay), and 4 more credits �
Stars:
Sylvester Stallone, Liam Hemsworth and Randy Couture | See full cast and crew




The Expendables 2 2012 Dvdscr AMS/Read Me!!!.txt 100 B
The Expendables 2 2012 Dvdscr AMS/The Expendables 2 2012 Dvdscr AMS.avi 739.246 MB
Gathering some info...

Register and log in Isohunt and see no captcha anymore!

4000 symbols left
Hash 9b320e636ad0d771c637c914b4fec2ce679a1ecf

Related torrents for "The Expendables 2 2012 Dvdscr AMS"

Torrent search:

screener 2012