imdb
rating

6.2
The Campaign

The Campaign (2012)

Comedy

Full description
quality   cam telesync dvdrip hd fullhd

The Campaign 2012 HD-RiP XViD-4PlayHD

Size 727.833 MB   0 seeders     Added 2012-08-28 02:55:20

Stream torrent
Starting‥ You need BitLord! Get it from BitLord.com
To download or stream you need BitLord. Visit them at BitLord.com
The.Campaign.2012.HD-RiP.XViD-4PlayHD\r\n\r\n\r\n\r\n\r\nFormat                                   : AVI\r\nFormat/Info                              : Audio Video Interleave\r\nFile size                                : 700mB\r\nDuration                                 : 1h 35mn\r\nOverall bit rate                         : 2 361 Kbps\r\nWriting library                          : VirtualDub build 32839/release\r\n\r\nVideo\r\nID                                       : 214564\r\nFormat                                   : MPEG-4 Visual\r\nFormat profile                           : Advanced Simple@L5\r\nFormat settings, BVOP                    : 2\r\nFormat settings, QPel                    : No\r\nFormat settings, GMC                     : No warppoints\r\nFormat settings, Matrix                  : Default (H.263)\r\nMuxing mode                              : Packed bitstream\r\nCodec ID                                 : XVID\r\nCodec ID/Hint                            : XviD\r\nDuration                                 : 1h 35mn\r\nBit rate                                 : 2 222 Kbps\r\nWidth                                    : 720 pixels\r\nHeight                                   : 384 pixels\r\nDisplay aspect ratio                     : 1.875\r\nFrame rate                               : 29.970 fps\r\nColor space                              : YUV\r\nChroma subsampling                       : 4:2:0\r\nBit depth                                : 8 bits\r\nScan type                                : Progressive\r\nCompression mode                         : Lossy\r\nBits/(Pixel*Frame)                       : 0.268\r\nStream size                              : 1.29 GiB (94%)\r\nWriting library                          : XviD 1.2.1 (UTC 2008-12-04)\r\n\r\nAudio\r\nID                                       : 1\r\nFormat                                   : MPEG Audio\r\nFormat version                           : Version 1\r\nFormat profile                           : Layer 3\r\nMode                                     : Joint stereo\r\nMode extension                           : MS Stereo\r\nCodec ID                                 : 55\r\nCodec ID/Hint                            : MP3\r\nDuration                                 : 1h 35mn\r\nBit rate mode                            : Constant\r\nBit rate                                 : 256 Kbps\r\nChannel(s)                               : 2 channels\r\nSampling rate                            : 44.1 KHz\r\nCompression mode                         : Lossy\r\nStream size                              : 75.8 MiB (5%)\r\nAlignment                                : Split accross interleaves\r\nInterleave, duration                     : 33 ms (1.00 video frame)\r\nWriting library                          : LAME3.98
The.Campaign.2012.HD-RiP.XViD-4PlayHD/The.Campaign.2012.HD-RiP.XViD-4PlayHD.rar 727.831 MB
The.Campaign.2012.HD-RiP.XViD-4PlayHD/The.Campaign.2012.HD-RiP.XViD-4PlayHD.nfo 867 B
The.Campaign.2012.HD-RiP.XViD-4PlayHD/The.Campaign.2012.HD-RiP.XViD-4PlayHD.fr.txt 668 B
Gathering some info...

Register and log in Isohunt and see no captcha anymore!

4000 symbols left
Hash F38A29FE80AA3F97C6E40AF0BAFD12369C542838

Related torrents for "The Campaign 2012 HD-RiP XViD-4PlayHD"

Torrent search:

hd 2012