imdb
rating

6.7
The Expendables 2

The Expendables 2 (2012)

Action, Adventure, Thriller

Full description

The Expendables 2 (2012) HD-RiP XViD-3LT0N

Size 727.833 MB   0 seeders     Added 2012-08-28 03:00:07

Stream torrent
Starting‥ You need BitLord! Get it from BitLord.com
To download or stream you need BitLord. Visit them at BitLord.com
The Expendables 2 (2012) HD-RiP.XViD-3LT0N\r\n\r\n\r\n\r\nIMDB Rating:\r\n\r\nRatings: 7.7/10 from 17,761 users   Metascore: 51/100  \r\nReviews: 162 user | 142 critic | 27 from Metacritic.com\r\n\r\n\r\nMr. Church reunites the Expendables for what should be an easy paycheck, but when one of their men is murdered on the job, their quest for revenge puts them deep in enemy territory and up against an unexpected threat.\r\n\r\n\r\n\r\n\r\n   Directed by\r\n\r\nSimon West	 	\r\n \r\n   Writing credits\r\n\r\nRichard Wenk	 	(screenplay) \r\nSylvester Stallone	(screenplay)\r\n\r\nKen Kaufman	 	(story) \r\nDavid Agosto	 	(story) \r\nRichard Wenk	 	(story)\r\n\r\nDave Callaham	 	(characters) (as David Callaham)\r\n\r\n\r\n\r\n\r\n   Cast:\r\n\r\n\r\nSylvester Stallone	 ...	Barney Ross\r\n\r\nJason Statham	 ...	Lee Christmas\r\n\r\nJet Li	 ...	Yin Yang\r\n\r\nDolph Lundgren	 ...	Gunner Jensen\r\n\r\nChuck Norris	 ...	Booker\r\n\r\nJean-Claude Van Damme	 ...	Villain\r\n\r\nBruce Willis	 ...	Church\r\n\r\nArnold Schwarzenegger	 ...	Trench\r\n\r\nTerry Crews	 ...	Hale Caesar\r\n\r\nRandy Couture	 ...	Toll Road\r\n\r\nLiam Hemsworth	 ...	Bill The Kid\r\n\r\nScott Adkins	 ...	Hector\r\n\r\nNan Yu	 ...	Maggie\r\n\r\nAmanda Ooms	 ...	Pilar\r\n\r\nCharisma Carpenter	 ...	Lacy\r\n\r\n\r\n\r\n\r\nSOURCES:\r\n\r\nVIDEO -  NEW SOURCE and UNKNOWN THANKS\r\nAUDIO -  ADTRG THANKS\r\nSUBS  -  English, French, Hindi \r\n\r\nSTATS:\r\n\r\nideo\r\nID                               : 0\r\nFormat                           : MPEG-4 Visual\r\nFormat profile                   : Advanced Simple@L5\r\nFormat settings, BVOP            : 2\r\nFormat settings, QPel            : No\r\nFormat settings, GMC             : No warppoints\r\nFormat settings, Matrix          : Default (MPEG)\r\nMuxing mode                      : Packed bitstream\r\nCodec ID                         : XVID\r\nCodec ID/Hint                    : XviD\r\nDuration                         : 1h 43mn\r\nBit rate                         : 2 511 Kbps\r\nWidth                            : 720 pixels\r\nHeight                           : 456 pixels\r\nDisplay aspect ratio             : 2.500\r\nFrame rate                       : 29.970 fps\r\nColor space                      : YUV\r\nChroma subsampling               : 4:2:0\r\nBit depth                        : 8 bits\r\nScan type                        : Progressive\r\nCompression mode                 : Lossy\r\nBits/(Pixel*Frame)               : 0.404\r\nStream size                      : 1.28 GiB (95%)\r\nWriting library                  : XviD 64\r\n\r\nAudio\r\nID                               : 1\r\nFormat                           : MPEG Audio\r\nFormat version                   : Version 1\r\nFormat profile                   : Layer 3\r\nMode                             : Joint stereo\r\nMode extension                   : MS Stereo\r\nCodec ID                         : 55\r\nCodec ID/Hint                    : MP3\r\nDuration                         : 1h 43mn\r\nBit rate mode                    : Constant\r\nBit rate                         : 128 Kbps\r\nChannel(s)                       : 2 channels\r\nSampling rate                    : 48.0 KHz\r\nCompression mode                 : Lossy\r\nStream size                      : 66.7 MiB (5%)\r\nAlignment                        : Split accross interleaves\r\nInterleave, duration             : 33 ms (1.00 video frame)\r\nInterleave, preload duration     : 500 ms
The Expendables 2 (2012) HD-RiP.XViD-3LT0N/The Expendables 2 (2012) HD-RiP.XViD-3LT0N.rar 727.831 MB
The Expendables 2 (2012) HD-RiP.XViD-3LT0N/The Expendables 2 (2012) HD-RiP.XViD-3LT0N.nfo 867 B
The Expendables 2 (2012) HD-RiP.XViD-3LT0N/The Expendables 2 (2012) HD-RiP.XViD-3LT0N.fr.txt 669 B
Gathering some info...

Register and log in Isohunt and see no captcha anymore!

4000 symbols left
Hash A87A08471C4141A87F7866BD7723C84E872917D1

Related torrents for "The Expendables 2 (2012) HD-RiP XViD-3LT0N"

Torrent search:

hd 2012