Brave 2012. DVDRip. Xvid.

Size 744.49 MB   0 seeders     Added 2012-08-28 13:38:28

To download or stream you need BitLord. Visit them at BitLord.com
Sources
Cam: Xrabraya.serdcem.2012.D.TS - Thx
Line: DrunkenNinja - Cheers awesome work Bro

Video: 720x320 @ bitrate 1400 2Pass
Audio: AC3 2.0 @ 128Kbps
Sample: Yes, included


http://www.imdb.com/title/tt1217209/


Complete name                            : Brave.2012.TS.XViD.AC3.SeeN-CM8.avi
Format                                   : AVI
Format/Info                              : Audio Video Interleave
File size                                : 928 MiB
Duration                                 : 1h 24mn
Overall bit rate                         : 1 533 Kbps

Video
ID                                       : 0
Format                                   : MPEG-4 Visual
Codec ID                                 : XVID
Duration                                 : 1h 24mn
Bit rate                                 : 1 396 Kbps
Width                                    : 720 pixels
Height                                   : 320 pixels
Display aspect ratio                     : 2.25:1
Frame rate                               : 24.000 fps
Stream size                              : 845 MiB (91%)

Audio
ID                                       : 1
Format                                   : AC-3
Bit rate                                 : 128 Kbps
Channel(s)                               : 2 channels
Channel positions                        : Front: L R
Sampling rate                            : 44.1 KHz
Stream size                              : 77.3 MiB (8%)


Plot:
Determined to make her own path in life, Princess Merida defies a custom
that brings chaos to her kingdom. Granted one wish, Merida must rely on
her bravery and her archery skills to undo a beastly curse. 


Directors: Mark Andrews, Brenda Chapman
Writers: Brenda Chapman (story), Mark Andrews (screenplay)
Stars: Kelly Macdonald, Billy Connolly and Emma Thompson
Brave 2012. DVDRip. Xvid.rar 744.49 MB
Gathering some info...

Register and log in Isohunt and see no captcha anymore!

4000 symbols left
Hash c6eda9a1c67fb65646b25e5f12d8c784f72505e9

Related torrents for "Brave 2012. DVDRip. Xvid."

Torrent search:

2012