The Bourne Legacy 2012 TS READNFO XViD - DIMENSION

Size 1.851 GB   0 seeders     Added 2012-08-28 13:44:13

To download or stream you need BitLord. Visit them at BitLord.com
image

TITLE:

The Bourne Legacy 2012 TS READNFO XViD - INSPiRAL

IMDB:

http://www.imdb.com/title/tt1194173/

STATS:

Video
ID : 0
Format : MPEG-4 Visual
Format profile : Advanced Simple@L5
Format settings, BVOP : 2
Format settings, QPel : No
Format settings, GMC : No warppoints
Format settings, Matrix : Default (MPEG)
Muxing mode : Packed bitstream
Codec ID : XVID
Codec ID/Hint : XviD
Duration : 2h 7mn 56secs
Bit rate : 2 051 Kbps
Width : 720 pixels
Height : 272 pixels
Display aspect ratio : 2.647
Frame rate : 29.970 fps
Color space : YUV
Chroma subsampling : 4:2:0
Bit depth : 8 bits
Scan type : Progressive
Compression mode : Lossy
Bits/(Pixel*Frame) : 0.349
Stream size : 1.83 GiB (94%)
Writing library : XviD 64

Audio
ID : 1
Format : MPEG Audio
Format version : Version 1
Format profile : Layer 3
Codec ID : 55
Codec ID/Hint : MP3
Duration : 2h 7mn 56secs
Bit rate mode : Constant
Bit rate : 128 Kbps
Channel(s) : 2 channels
Sampling rate : 48.0 KHz
Compression mode : Lossy
Stream size : 117 MiB (6%)
Alignment : Split accross interleaves
Interleave, duration : 33 ms (1.00 video frame)
Interleave, preload duration : 500 ms

image
The Bourne Legacy 2012 TS READNFO XViD - DIMENSION/The Bourne Legacy 2012 TS READNFO XViD - DIMENSION.rar 1.851 GB
The Bourne Legacy 2012 TS READNFO XViD - DIMENSION/The bourne legacy 2012.html 99 B
Gathering some info...

Register and log in Isohunt and see no captcha anymore!

4000 symbols left
Hash a3f971434fc32993f2f45e8037cf2d72e10b9fc5