General.Education.2012.Ts.AMIABLE

Size 739.246 MB   0 seeders     Added 2012-08-28 19:57:06

Stream torrent
Starting‥ You need BitLord! Get it from 1BitLord.com
To download or stream you need BitLord. Visit them at BitLord.com
Plot Summary: Levi Collins (Sheffield) is set to go to the local University
 on a tennis scholarship, but he forgot to tell his parents one thing – he didn’t 
graduate. As a result, he must take summer school before his mom and dad discover he’s failed senior science. 
At school, Levi falls in love with his classmate, Katie (Walsh), and learns that he has to make a choice between
playing tennis and receiving a proper education. "General Education" is a quirky comedy about a family learning to grow together. 

Format                                   : AVI
Format/Info                              : Audio Video Interleave
File size                                : 1.24 GiB
Duration                                 : 1h 36mn
Overall bit rate                         : 1 842 Kbps

Video
ID                                       : 0
Format                                   : MPEG-4 Visual
Format profile                           : Advanced Simple@L5
Format settings, BVOP                    : 2
Format settings, QPel                    : No
Format settings, GMC                     : No warppoints
Format settings, Matrix                  : Default (H.263)
Codec ID                                 : XVID
Codec ID/Hint                            : XviD
Duration                                 : 1h 36mn
Bit rate                                 : 1 450 Kbps
Width                                    : 720 pixels
Height                                   : 256 pixels
Display aspect ratio                     : 2.813
Frame rate                               : 25.000 fps
Color space                              : YUV
Chroma subsampling                       : 4:2:0
Bit depth                                : 8 bits
Scan type                                : Progressive
Compression mode                         : Lossy
Bits/(Pixel*Frame)                       : 0.315
Stream size                              : 1 001 MiB (79%)
Writing library                          : XviD 1.2.1 (UTC 2008-12-04)

Audio
ID                                       : 1
Format                                   : AC-3
Format/Info                              : Audio Coding 3
Mode extension                           : CM (complete main)
Codec ID                                 : 2000
Duration                                 : 1h 36mn
Bit rate mode                            : Constant
Bit rate                                 : 384 Kbps
Channel(s)                               : 6 channels
Channel positions                        : Front: L C R, Side: L R, LFE
Sampling rate                            : 48.0 KHz
Bit depth                                : 16 bits
Compression mode                         : Lossy
Stream size                              : 265 MiB (21%)
Alignment                                : Aligned on interleaves
Interleave, duration                     : 64 ms (1.60 video frames)
Interleave, preload duration             : 192 ms
General.Education.2012.Ts.AMIABLE/General.Education.2012.Ts.AMIABLE.avi 739.246 MB
General.Education.2012.Ts.AMIABLE/Read Me!!!.txt 101 B
Gathering some info...

Register and log in Isohunt and see no captcha anymore!

4000 symbols left
Hash f22fab5a39e77d74f5c79da9274bc60d47940bfa