imdb
rating

8.5
The Dark Knight Rises

The Dark Knight Rises (2012)

Action, Crime, Drama, Thriller

Full description

The Dark Knight Rises 2012 TS XVID AC3 HQ Hive CM8

Size 2.31 GB   0 seeders     Added 2012-08-29 02:49:10

Stream torrent
Starting‥ You need BitLord! Get it from BitLord.com
To download or stream you need BitLord. Visit them at BitLord.com
Looking for fast download speeds come join http://dream-torrents.com for all the latest releases, with friendly staff online radio and games and much much more.\r\n-\r\n-\r\n.The.Dark.Knight.Rises.2012.TS.XVID.AC3.HQ.Hive-CM8\r\n\r\n\r\n\r\n\r\n\r\nThx Hive\r\n\r\n\r\n\r\nCM8 Doing It Right The First Time\r\n\r\n\r\n\r\nSource:\r\n\r\nVideo: Seen's Friends - cheers too\r\n\r\nAudio: DrunkenNinja - thx, hiqh quality line as always\r\n\r\n\r\n\r\nVideo:\r\n\r\ngot that nice very big cam source, thought i give it a try, even though there are lots\r\n\r\nof versions already out and i didnt have time the last days, here is my version.\r\n\r\nthe cam had a bad angle, needed rotating and some perspective, after couple tries\r\n\r\ni found a nice way without loosing that much video. tried to preserve the complete\r\n\r\nheight of the video only 16 lines lost, added brightness and contrast and tried to\r\n\r\nremove some noise in the video.\r\n\r\n\r\n\r\nAudio:\r\n\r\nSeen already made a fine job on syncing, thx btw.\r\n\r\nTook the audio and cleaned it through and made another complete syncround.\r\n\r\n\r\n\r\nall in all it got nice, if you still want another version, perhaps this is the one\r\n\r\nwill do me till retail comes around\r\n\r\nenjoy\r\n\r\n\r\n\r\nVideo: 720x400 @bitrate 1700 2pass\r\n\r\nAudio: English AC3 2.0 Line\r\n\r\nSample: Yes, included\r\n\r\n\r\n\r\nhttp://www.imdb.com/title/tt1345836/\r\n\r\n\r\n\r\nGeneral\r\n\r\nComplete name : The.Dark.Knight.Rises.2012.TS.XVID.AC3.HQ.Hive-CM8.avi\r\n\r\nFormat : AVI\r\n\r\nFormat/Info : Audio Video Interleave\r\n\r\nFormat profile : OpenDML\r\n\r\nFormat settings : rec\r\n\r\nFile size : 2.12 GiB\r\n\r\nDuration : 2h 34mn\r\n\r\nOverall bit rate : 1 964 Kbps\r\n\r\nWriting application : AVI-Mux GUI 1.17.7, Aug 8 2006 20:59:17\r\n\r\n\r\n\r\nVideo\r\n\r\nID : 0\r\n\r\nFormat : MPEG-4 Visual\r\n\r\nFormat profile : Advanced Simple@L5\r\n\r\nFormat settings, BVOP : 2\r\n\r\nFormat settings, QPel : Yes\r\n\r\nFormat settings, GMC : No warppoints\r\n\r\nFormat settings, Matrix : Default (H.263)\r\n\r\nMuxing mode : Packed bitstream\r\n\r\nCodec ID : XVID\r\n\r\nCodec ID/Hint : XviD\r\n\r\nDuration : 2h 34mn\r\n\r\nBit rate : 1 703 Kbps\r\n\r\nWidth : 720 pixels\r\n\r\nHeight : 400 pixels\r\n\r\nDisplay aspect ratio : 16:9\r\n\r\nFrame rate : 25.000 fps\r\n\r\nColor space : YUV\r\n\r\nChroma subsampling : 4:2:0\r\n\r\nBit depth : 8 bits\r\n\r\nScan type : Progressive\r\n\r\nCompression mode : Lossy\r\n\r\nBits/(Pixel*Frame) : 0.236\r\n\r\nStream size : 1.84 GiB (87%)\r\n\r\nWriting library : XviD 1.2.1 (UTC 2008-12-04)\r\n\r\n\r\n\r\nAudio\r\n\r\nID : 1\r\n\r\nFormat : AC-3\r\n\r\nFormat/Info : Audio Coding 3\r\n\r\nMode extension : CM (complete main)\r\n\r\nFormat settings, Endianness : Big\r\n\r\nCodec ID : 2000\r\n\r\nDuration : 2h 34mn\r\n\r\nBit rate mode : Constant\r\n\r\nBit rate : 256 Kbps\r\n\r\nChannel(s) : 2 channels\r\n\r\nChannel positions : Front: L R\r\n\r\nSampling rate : 48.0 KHz\r\n\r\nBit depth : 16 bits\r\n\r\nCompression mode : Lossy\r\n\r\nStream size : 283 MiB (13%)\r\n\r\nAlignment : Aligned on interleaves\r\n\r\nInterleave, duration : 64 ms (1.60 video frames)\r\n\r\nInterleave, preload duration : 192 ms\r\n\r\n\r\n\r\nPlot:\r\n\r\nEight years on, a new terrorist leader, Bane, overwhelms Gotham's finest, and\r\n\r\nthe Dark Knight resurfaces to protect a city that has branded him an enemy.
The.Dark.Knight.Rises.2012.TS.XVID.AC3.HQ.Hive-CM8.avi 2.28 GB
The.Dark.Knight.Rises.2012.TS.XVID.AC3.HQ.Hive-CM8.nfo 4.9 KB
sample.avi 29.975 MB
Gathering some info...

Register and log in Isohunt and see no captcha anymore!

4000 symbols left
Hash 484D0C8379FB42C5CA7518B2EE8DB1DB16A0C5CA

Related torrents for "The Dark Knight Rises 2012 TS XVID AC3 HQ Hive CM8"

Torrent search:

telesync 2012