imdb
rating

4.9
The Cold Light of Day

The Cold Light of Day (2012)

Action, Thriller

Full description
quality   dvdrip bd cam telesync dvd x264 hd

The Cold Light of Day 2012 DVDrip Eng Skandale

Size 1.727 GB   0 seeders     Added 2012-08-29 02:56:01

Stream torrent
Starting‥ You need BitLord! Get it from 1BitLord.com
To download or stream you need BitLord. Visit them at BitLord.com
[IMG]image[/IMG]\r\nmet Henry Cavill, Bruce Willis en Sigourney Weaver\r\n\r\n'The Cold Light of Day' gaat over de jonge Amerikaan Will (Henry Cavill) die tijdens een vakantie in Spanje zijn gezin in handen van ontvoerders ziet vallen. Tijdens de zoektocht naar zijn gezin stuit hij op een samenzwering van de overheid en een connectie tussen de kidnapping en zijn vader.\r\n\r\nAfter his family is kidnapped during their sailing trip in Spain, a young Wall Street trader is confronted by the people responsible: intelligence agents looking to recover a mysterious briefcase.\r\n\r\nhttp://www.imdb.com/title/tt1366365/\r\n\r\n[COLOR=#FF99CC]------------------------ Dutch Friends ------------------------\r\n---------------------------------------------------------------\r\n- Bezoek ook eens mijn vrienden op:  http://www.Film-Test.nl --\r\n----- voor mijn Nederlandse Sync. ondertitels ---- en meer ----\r\n------- http://www.Film-Test.nl ---- voor Films en meer -------\r\n---------------------------------------------------------------[/COLOR]\r\n\r\nGeneral\r\nComplete name                            : The Cold Light of Day 2012.avi\r\nFormat                                   : AVI\r\nFormat/Info                              : Audio Video Interleave\r\nFile size                                : 1.61 GiB\r\nDuration                                 : 1h 33mn\r\nOverall bit rate                         : 2 466 Kbps\r\n\r\nVideo\r\nID                                       : 0\r\nFormat                                   : MPEG-4 Visual\r\nFormat profile                           : Simple@L1\r\nFormat settings, BVOP                    : No\r\nFormat settings, QPel                    : No\r\nFormat settings, GMC                     : No warppoints\r\nFormat settings, Matrix                  : Default (H.263)\r\nCodec ID                                 : DX50\r\nCodec ID/Hint                            : DivX 5\r\nDuration                                 : 1h 33mn\r\nBit rate                                 : 2 007 Kbps\r\nWidth                                    : 720 pixels\r\nHeight                                   : 304 pixels\r\nDisplay aspect ratio                     : 2.35:1\r\nFrame rate                               : 23.976 fps\r\nColor space                              : YUV\r\nChroma subsampling                       : 4:2:0\r\nBit depth                                : 8 bits\r\nScan type                                : Progressive\r\nCompression mode                         : Lossy\r\nBits/(Pixel*Frame)                       : 0.383\r\nStream size                              : 1.31 GiB (81%)\r\nWriting library                          : Lavc52.0.0\r\n\r\nAudio\r\nID                                       : 1\r\nFormat                                   : AC-3\r\nFormat/Info                              : Audio Coding 3\r\nMode extension                           : CM (complete main)\r\nFormat settings, Endianness              : Big\r\nCodec ID                                 : 2000\r\nDuration                                 : 1h 33mn\r\nSource duration                          : 1h 33mn\r\nBit rate mode                            : Constant\r\nBit rate                                 : 448 Kbps\r\nChannel(s)                               : 6 channels\r\nChannel positions                        : Front: L C R, Side: L R, LFE\r\nSampling rate                            : 48.0 KHz\r\nBit depth                                : 16 bits\r\nCompression mode                         : Lossy\r\nStream size                              : 299 MiB (18%)\r\nAlignment                                : Aligned on interleaves\r\nInterleave, duration                     : 32 ms (0.77 video frame)
The Cold Light of Day 2012.avi 1.727 GB
Cover/The-Cold-Light-Of-Day-2012-Front-Cover-66056.jpg 51.985 KB
flyer.jpg 33.678 KB
Gathering some info...

Register and log in Isohunt and see no captcha anymore!

4000 symbols left
Hash 77F82B3641B3632765FCC41D794F90CC3270F7C2

Related torrents for "The Cold Light of Day 2012 DVDrip Eng Skandale"

Torrent search:

dvdrip english 2012