The Expendables 2.2012.DVDRiP.XviD-SUPDRE

Size 1.329 GB   0 seeders     Added 2012-08-30 02:52:41

To download or stream you need BitLord. Visit them at BitLord.com
Details:
-------
Video
ID : 0
Format : MPEG-4 Visual
Format profile : AdvancedSimple@L5
Format settings, BVOP : Yes
Format settings, QPel : No
Format settings, GMC : No warppoints
Format settings, Matrix : Custom
Codec ID : XVID
Codec ID/Hint : XviD
Duration : 1h 41mn
Bit rate : 1 625 Kbps
Width : 720 pixels
Height : 304 pixels
Display aspect ratio : 2.35:1
Frame rate : 23.976 fps
Resolution : 24 bits
Colorimetry : 4:2:0
Scan type : Progressive
Bits/(Pixel*Frame) : 0.310
Stream size : 691 MiB (99%)
Writing library : XviD 58
Audio
ID : 1
Format : AC-3
Format/Info : Audio Coding 3
Codec ID : 2000
Duration : 1h 41mn
Bit rate mode : Constant
Bit rate : 192 Kbps
Channel(s) : 2 channels
Channel positions : L R
Sampling rate : 48.0 KHz
Stream size : 147 MiB (11%)
Alignment : Aligned on interleaves
Interleave, duration : 64 ms (1.53 video frames)
Interleave, preload duration : 192 ms
-----------------------------------------
 
The Expendables 2.2012.DVDRiP.XviD-SUPER.part1.rar 199 MB
The Expendables 2.2012.DVDRiP.XviD-SUPER.part2.rar 199 MB
The Expendables 2.2012.DVDRiP.XviD-SUPER.part3.rar 199 MB
Gathering some info...

Register and log in Isohunt and see no captcha anymore!

4000 symbols left
Hash D61A021C7EE6EF9777EA4D44052203A2B993B9ED