Premium Rush 2012 FRENCH DVDRiP XviD MARTiNE

Size 737.194 MB   0 seeders     Added 2012-08-30 19:44:02

To download or stream you need BitLord. Visit them at BitLord.com
[IMG]image[/IMG]
 
TITLE: 

Premium Rush 2012 FRENCH DVDRiP XviD - MARTiNE

IMDB: 

http://www.imdb.com/title/tt1547234/


STATS:

Video
ID                               : 0
Format                           : MPEG-4 Visual
Format profile                   : Advanced Simple@L5
Format settings, BVOP            : 2
Format settings, QPel            : No
Format settings, GMC             : No warppoints
Format settings, Matrix          : Default (MPEG)
Muxing mode                      : Packed bitstream
Codec ID                         : XVID
Codec ID/Hint                    : XviD
Duration                         : 1h 31mn
Bit rate                         : 986 Kbps
Width                            : 720 pixels
Height                           : 320 pixels
Display aspect ratio             : 2.25:1
Frame rate                       : 29.970 fps
Color space                      : YUV
Chroma subsampling               : 4:2:0
Bit depth                        : 8 bits
Scan type                        : Progressive
Compression mode                 : Lossy
Bits/(Pixel*Frame)               : 0.243
Stream size                      : 702 MiB (92%)
Writing library                  : XviD 64

Audio

Format                           : MPEG Audio
Format version                   : Version 1
Format profile                   : Layer 3
Mode                             : Joint stereo
Mode extension                   : MS Stereo
Codec ID                         : 55
Codec ID/Hint                    : MP3
Duration                         : 1h 31mn
Bit rate mode                    : Constant
Bit rate                         : 128 Kbps
Channel(s)                       : 2 channels
Sampling rate                    : 48.0 KHz
Compression mode                 : Lossy
Stream size                      : 51 MiB (7%)
Alignment                        : Split accross interleaves
Interleave, duration             : 33 ms (1.00 video frame)
Interleave, preload duration     : 500 ms


SCREENS:

[IMG]image[/IMG]
[IMG]image[/IMG]
[IMG]image[/IMG]
...






Premium Rush 2012 FRENCH DVDRiP XviD - MARTiNE/cover.jpg 54.506 KB
Premium Rush 2012 FRENCH DVDRiP XviD - MARTiNE/Premium Rush 2012 FRENCH DVDRiP XviD - MARTiNE.nfo 2.214 KB
Premium Rush 2012 FRENCH DVDRiP XviD - MARTiNE/Premium Rush 2012 FRENCH DVDRiP XviD - MARTiNE/Premium Rush 2012 FRENCH DVDRiP XviD - MARTiNE.rar 736.916 MB
Gathering some info...

Register and log in Isohunt and see no captcha anymore!

4000 symbols left
Hash e97a45f942caa5325b8eafd63e30f82d9bd3d5c3

Related torrents for "Premium Rush 2012 FRENCH DVDRiP XviD MARTiNE"

Torrent search:

french 2012