imdb
rating

6.0
David et Madame Hansen

David et Madame Hansen (2012)

Comedy, Drama

Full description
quality   telesync dvdrip bd x264 hd fullhd

David et Madame Hansen FRENCH DVDRip XViD - ETRG

Size 736.208 MB   0 seeders     Added 2012-08-31 02:52:45

Stream torrent
Starting‥ You need BitLord! Get it from BitLord.com
To download or stream you need BitLord. Visit them at BitLord.com
David et Madame Hansen FRENCH DVDRip XViD - ETRG\r\n\r\n[IMG]image[/IMG] \r\n\r\nIMDB: \r\n\r\nhttp://www.imdb.com/title/tt1921068/\r\n\r\n\r\nSTATS:\r\n\r\nVideo\r\nID                               : 0\r\nFormat                           : MPEG-4 Visual\r\nFormat profile                   : Advanced Simple@L5\r\nFormat settings, BVOP            : 2\r\nFormat settings, QPel            : No\r\nFormat settings, GMC             : No warppoints\r\nFormat settings, Matrix          : Default (MPEG)\r\nMuxing mode                      : Packed bitstream\r\nCodec ID                         : XVID\r\nCodec ID/Hint                    : XviD\r\nDuration                         : 1h 29mn\r\nBit rate                         : 986 Kbps\r\nWidth                            : 720 pixels\r\nHeight                           : 320 pixels\r\nDisplay aspect ratio             : 2.25:1\r\nFrame rate                       : 29.970 fps\r\nColor space                      : YUV\r\nChroma subsampling               : 4:2:0\r\nBit depth                        : 8 bits\r\nScan type                        : Progressive\r\nCompression mode                 : Lossy\r\nBits/(Pixel*Frame)               : 0.243\r\nStream size                      : 646 MiB (92%)\r\nWriting library                  : XviD 64\r\n\r\nAudio\r\n\r\nFormat                           : MPEG Audio\r\nFormat version                   : Version 1\r\nFormat profile                   : Layer 3\r\nMode                             : Joint stereo\r\nMode extension                   : MS Stereo\r\nCodec ID                         : 55\r\nCodec ID/Hint                    : MP3\r\nDuration                         : 1h 29mn\r\nBit rate mode                    : Constant\r\nBit rate                         : 128 Kbps\r\nChannel(s)                       : 2 channels\r\nSampling rate                    : 48.0 KHz\r\nCompression mode                 : Lossy\r\nStream size                      : 56 MiB (7%)\r\nAlignment                        : Split accross interleaves\r\nInterleave, duration             : 33 ms (1.00 video frame)\r\nInterleave, preload duration     : 500 ms\r\n\r\n\r\nSCREENS:\r\n\r\n[IMG]image[/IMG]\r\n[IMG]image[/IMG]\r\n[IMG]image[/IMG]
David et Madame Hansen FRENCH DVDRip XViD - ETRG.nfo 2.198 KB
David et Madame Hansen FRENCH DVDRip XViD - ETRG.rar 736.102 MB
Screenshot01.jpg 26.715 KB
Gathering some info...

Register and log in Isohunt and see no captcha anymore!

4000 symbols left
Hash 884E68FE1D95E4DABB690094A869F88E430CF5CB

Related torrents for "David et Madame Hansen FRENCH DVDRip XViD - ETRG"

Torrent search:

dvdrip french