imdb
rating

 
The Drive

The Drive (2013)

Full description
quality   telesync hd x264 fullhd hdtv

L39ge de Glace 4 La drive des continents FRENCH Dvd-RiP XViD

Size 727.835 MB   0 seeders     Added 2012-08-31 02:54:03

Stream torrent
Starting‥ You need BitLord! Get it from BitLord.com
4.1
To download or stream you need BitLord. Visit them at BitLord.com
L'Âge de Glace 4 La dérive des continents FRENCH.Dvd-RiP.XViD\r\n\r\n\r\nAnimation (01h34min) - Date de sortie : 27/06/2012\r\n\r\nDe Steve Martino, Mike Thurmeier\r\n\r\nAvec Ray Romano, Denis Leary\r\n\r\nAprès un cataclysme qui a provoqué la dérive de tout un continent, Manny, Diego et Sid se retrouvent séparés du reste de la horde. Essayant de rejoindre leurs amis à tout prix, ils utilisent un iceberg comme bateau et se retrouvent dans un périple maritime épique !\r\n\r\n\r\nFormat                                   : AVI\r\nFormat/Info                              : Audio Video Interleave\r\nFile size                                : 700mB\r\nDuration                                 : 1h 34mn\r\nOverall bit rate                         : 2 361 Kbps\r\nWriting library                          : VirtualDub build 32839/release\r\n\r\nVideo\r\nID                                       : 214564\r\nFormat                                   : MPEG-4 Visual\r\nFormat profile                           : Advanced Simple@L5\r\nFormat settings, BVOP                    : 2\r\nFormat settings, QPel                    : No\r\nFormat settings, GMC                     : No warppoints\r\nFormat settings, Matrix                  : Default (H.263)\r\nMuxing mode                              : Packed bitstream\r\nCodec ID                                 : XVID\r\nCodec ID/Hint                            : XviD\r\nDuration                                 : 1h 34mn\r\nBit rate                                 : 2 222 Kbps\r\nWidth                                    : 720 pixels\r\nHeight                                   : 384 pixels\r\nDisplay aspect ratio                     : 1.875\r\nFrame rate                               : 29.970 fps\r\nColor space                              : YUV\r\nChroma subsampling                       : 4:2:0\r\nBit depth                                : 8 bits\r\nScan type                                : Progressive\r\nCompression mode                         : Lossy\r\nBits/(Pixel*Frame)                       : 0.268\r\nStream size                              : 1.29 GiB (94%)\r\nWriting library                          : XviD 1.2.1 (UTC 2008-12-04)\r\n\r\nAudio\r\nID                                       : 1\r\nFormat                                   : MPEG Audio\r\nFormat version                           : Version 1\r\nFormat profile                           : Layer 3\r\nMode                                     : Joint stereo\r\nMode extension                           : MS Stereo\r\nCodec ID                                 : 55\r\nCodec ID/Hint                            : MP3\r\nDuration                                 : 1h 34mn\r\nBit rate mode                            : Constant\r\nBit rate                                 : 256 Kbps\r\nChannel(s)                               : 2 channels\r\nSampling rate                            : 44.1 KHz\r\nCompression mode                         : Lossy\r\nStream size                              : 75.8 MiB (5%)\r\nAlignment                                : Split accross interleaves\r\nInterleave, duration                     : 33 ms (1.00 video frame)\r\nWriting library                          : LAME3.98
L'Âge de Glace 4 La dérive des continents FRENCH.Dvd-RiP.XViD/L'Âge de Glace 4 La dérive des continents FRENCH.Dvd-RiP.XViD.rar 727.831 MB
L'Âge de Glace 4 La dérive des continents FRENCH.Dvd-RiP.XViD/L'Âge de Glace 4 La dérive des continents FRENCH.Dvd-RiP.XViD.nfo 3.118 KB
L'Âge de Glace 4 La dérive des continents FRENCH.Dvd-RiP.XViD/readme.txt 669 B
Gathering some info...

Register and log in Isohunt and see no captcha anymore!

4000 symbols left
Hash F2785AFAA0A283DE7EBB87FAF15CD94914FAA4F7

Related torrents for "L39ge de Glace 4 La drive des continents FRENCH Dvd-RiP XViD"

Torrent search:

french