imdb
rating

7.1
The Devil's Double

The Devil's Double (2011)

Action, Crime, Drama, Thriller, War

Full description
quality   telesync bd hd x264 dvdrip fullhd

The Devil39s Double

Size 1.972 GB   0 seeders     Added 2012-08-31 02:58:15

Stream torrent
Starting‥ You need BitLord! Get it from BitLord.com
To download or stream you need BitLord. Visit them at BitLord.com
[img] image[/img]\r\n\r\nWith: Dominic Cooper, Ludivine Sagnier and Raad Rawi\r\n\r\nLatif Yahia (Dominic Cooper), een luitenant in het Irakese leger gestationeerd aan de Iraanse grens, heeft een buitengewone gelijkenis met de belichaming van het kwaad, Uday Hussein, de gevreesde zoon van Saddam Hussein. Latif wordt naar Saddam Husseins inner sanctum ontboden, waar hij voor een keuze wordt gezet; de dubbelganger van Saddams zoon worden... of sterven.\r\n\r\nA chilling vision of the House of Saddam Hussein comes to life through the eyes of the man who was forced to become the double of Hussein's sadistic son. \r\n\r\nhttp://www.imdb.com/title/tt1270262\r\n\r\n[COLOR=#DD0000]------------------------ Dutch Friends ------------------------\r\n---------------------------------------------------------------\r\n- Bezoek ook eens mijn vrienden op:  http://www.Film-Test.nl --\r\n----- voor mijn Nederlandse Sync. ondertitels ---- en meer ----\r\n------- http://www.Film-Test.nl ---- voor Films en meer -------\r\n---------------------------------------------------------------[/COLOR]\r\n\r\nGeneral:\r\n\r\nComplete name                    : The Devil's Double\\The Devil's Double.avi\r\nFormat                           : AVI\r\nFormat/Info                      : Audio Video Interleave\r\nFile size                        : 1.84 GiB\r\nDuration                         : 1h 43mn\r\nOverall bit rate                 : 2 535 Kbps\r\n\r\nVideo:\r\n\r\nFormat                           : MPEG-4 Visual\r\nFormat profile                   : Simple@L3\r\nFormat settings, BVOP            : No\r\nFormat settings, QPel            : No\r\nFormat settings, GMC             : No warppoints\r\nFormat settings, Matrix          : Default (H.263)\r\nCodec ID                         : XVID\r\nCodec ID/Hint                    : XviD\r\nDuration                         : 1h 43mn\r\nBit rate                         : 2 076 Kbps\r\nWidth                            : 720 pixels\r\nHeight                           : 304 pixels\r\nDisplay aspect ratio             : 2.35:1\r\nFrame rate                       : 25.000 fps\r\nColor space                      : YUV\r\nChroma subsampling               : 4:2:0\r\nBit depth                        : 8 bits\r\nScan type                        : Progressive\r\nCompression mode                 : Lossy\r\nBits/(Pixel*Frame)               : 0.379\r\nStream size                      : 1.50 GiB (82%)\r\nWriting library                  : XviD 1.1.2 (UTC 2006-11-01)\r\n\r\nAudio:\r\n\r\nFormat                           : AC-3\r\nFormat/Info                      : Audio Coding 3\r\nMode extension                   : CM (complete main)\r\nCodec ID                         : 2000\r\nDuration                         : 1h 43mn\r\nBit rate mode                    : Constant\r\nBit rate                         : 448 Kbps\r\nChannel(s)                       : 6 channels\r\nChannel positions                : Front: L C R, Side: L R, LFE\r\nSampling rate                    : 48.0 KHz\r\nBit depth                        : 16 bits\r\nCompression mode                 : Lossy\r\nStream size                      : 332 MiB (18%)\r\nAlignment                        : Aligned on interleaves\r\nInterleave, duration             : 32 ms (0.80 video frame)\r\nInterleave, preload duration     : 192 ms
The Devil's Double.avi 1.971 GB
Cover/The Devil's Double.jpg 767.213 KB
www.Film-Test.nl.JPG 34.175 KB
Gathering some info...

Register and log in Isohunt and see no captcha anymore!

4000 symbols left
Hash A7D117F1129B2408917875D68F799DF0552CC554

Related torrents for "The Devil39s Double"