Savages 2012 FRENCH DVDRiP XviD - playXD

Size 737.198 MB   0 seeders     Added 2012-08-31 17:17:18

To download or stream you need BitLord. Visit them at BitLord.com
[IMG]image[/IMG]
 
TITLE: 

Savages 2012 FRENCH DVDRiP XviD - playXD

IMDB: 

http://www.imdb.com/title/tt1615065/


STATS:

Video
ID                               : 0
Format                           : MPEG-4 Visual
Format profile                   : Advanced Simple@L5
Format settings, BVOP            : 2
Format settings, QPel            : No
Format settings, GMC             : No warppoints
Format settings, Matrix          : Default (MPEG)
Muxing mode                      : Packed bitstream
Codec ID                         : XVID
Codec ID/Hint                    : XviD
Duration                         : 2h 11mn
Bit rate                         : 986 Kbps
Width                            : 720 pixels
Height                           : 320 pixels
Display aspect ratio             : 2.25:1
Frame rate                       : 29.970 fps
Color space                      : YUV
Chroma subsampling               : 4:2:0
Bit depth                        : 8 bits
Scan type                        : Progressive
Compression mode                 : Lossy
Bits/(Pixel*Frame)               : 0.243
Stream size                      : 700 MiB (92%)
Writing library                  : XviD 64

Audio

Format                           : MPEG Audio
Format version                   : Version 1
Format profile                   : Layer 3
Mode                             : Joint stereo
Mode extension                   : MS Stereo
Codec ID                         : 55
Codec ID/Hint                    : MP3
Duration                         : 2h 11mn
Bit rate mode                    : Constant
Bit rate                         : 128 Kbps
Channel(s)                       : 2 channels
Sampling rate                    : 48.0 KHz
Compression mode                 : Lossy
Stream size                      : 51 MiB (7%)
Alignment                        : Split accross interleaves
Interleave, duration             : 33 ms (1.00 video frame)
Interleave, preload duration     : 500 ms


SCREENS:

[IMG]image[/IMG]
[IMG]image[/IMG]
[IMG]image[/IMG]






Savages 2012 FRENCH DVDRiP XviD - playXD/cover.jpg 80.721 KB
Savages 2012 FRENCH DVDRiP XviD - playXD/Savages 2012 FRENCH DVDRiP XviD - playXD.nfo 2.205 KB
Savages 2012 FRENCH DVDRiP XviD - playXD/Savages 2012 FRENCH DVDRiP XviD - playXD/Savages 2012 FRENCH DVDRiP XviD - playXD.rar 736.916 MB
Gathering some info...

Register and log in Isohunt and see no captcha anymore!

4000 symbols left
Hash 968d591677518c0b01c588aea2f3f5b329f0965c

Related torrents for "Savages 2012 FRENCH DVDRiP XviD - playXD"

Torrent search:

french 2012