imdb
rating

6.7
The Expendables 2

The Expendables 2 (2012)

Action, Adventure, Thriller

Full description

The Expendables 2 (2012) DVDRip XviD-MAX

Size 1.087 GB   0 seeders     Added 2012-09-01 00:26:22

Stream torrent
Starting‥ You need BitLord! Get it from 1BitLord.com
To download or stream you need BitLord. Visit them at BitLord.com
The Expendables 2 (2012) DVDRip XviD-MAX\r\n\r\nFormat                                   : AVI\r\nFormat/Info                              : Audio Video Interleave\r\nFormat profile                           : OpenDML\r\nFormat settings                          : rec\r\nFile size                                : 1.24 GiB\r\nDuration                                 : 2h 11mn\r\nOverall bit rate                         : 1 353 Kbps\r\nWriting application                      : VirtualDubMod 1.5.10.2 (build 2542/release)\r\nWriting library                          : VirtualDubMod build 2542/release\r\nOriginal source form                     : extratorrent - thepiratebay\r\nCopyright                                : SIGISMUNT\r\n\r\nVideo\r\nID                                       : 0\r\nFormat                                   : MPEG-4 Visual\r\nFormat profile                           : Advanced Simple@L5\r\nFormat settings, BVOP                    : 2\r\nFormat settings, QPel                    : No\r\nFormat settings, GMC                     : No warppoints\r\nFormat settings, Matrix                  : Default (H.263)\r\nMuxing mode                              : Packed bitstream\r\nCodec ID                                 : XVID\r\nCodec ID/Hint                            : XviD\r\nDuration                                 : 2h 11mn\r\nBit rate                                 : 1 028 Kbps\r\nWidth                                    : 640 pixels\r\nHeight                                   : 272 pixels\r\nDisplay aspect ratio                     : 2.35:1\r\nFrame rate                               : 23.976 fps\r\nColor space                              : YUV\r\nChroma subsampling                       : 4:2:0\r\nBit depth                                : 8 bits\r\nScan type                                : Progressive\r\nCompression mode                         : Lossy\r\nBits/(Pixel*Frame)                       : 0.246\r\nStream size                              : 967 MiB (76%)\r\nWriting library                          : XviD 64\r\n\r\nAudio\r\nID                                       : 1\r\nFormat                                   : AC-3\r\nFormat/Info                              : Audio Coding 3\r\nMode extension                           : CM (complete main)\r\nFormat settings, Endianness              : Big\r\nCodec ID                                 : 2000\r\nDuration                                 : 2h 11mn\r\nBit rate mode                            : Constant\r\nBit rate                                 : 320 Kbps\r\nChannel(s)                               : 6 channels\r\nChannel positions                        : Front: L C R, Side: L R, LFE\r\nSampling rate                            : 48.0 KHz\r\nBit depth                                : 16 bits\r\nCompression mode                         : Lossy\r\nStream size                              : 301 MiB (24%)\r\nAlignment                                : Aligned on interleaves\r\nInterleave, duration                     : 64 ms (1.53 video frames)\r\nInterleave, preload duration             : 192 ms\r\n\r\nMr. Church reunites the Expendables for what should be an easy paycheck, but when one of their men is murdered on the job, their quest for revenge puts them deep in enemy territory and up against an unexpected threat.
The Expendables 2 (2012) DVDRip XviD-MAX/ExtraTorrent Sample 1.515 MB
The Expendables 2 (2012) DVDRip XviD-MAX/The Expendables 2 (2012) DVDRip XviD-MAX.avi 1.085 GB
The Expendables 2 (2012) DVDRip XviD-MAX/Torrent Seeded by Novalayer.com.txt 167 B
Gathering some info...

Register and log in Isohunt and see no captcha anymore!

4000 symbols left
Hash 0d6722c9d928442f1b84d2c03c32b131b8999218

Related torrents for "The Expendables 2 (2012) DVDRip XviD-MAX"

Torrent search:

dvdrip 2012