Michel.Telo-Ai.Se.Eu.Te.Pego.WEB.Live.1080p.Mp4-FZvidS

Size 123.856 MB   0 seeders     Added 2012-09-02 02:41:08

Stream torrent
Starting‥ You need BitLord! Get it from 1BitLord.com
To download or stream you need BitLord. Visit them at BitLord.com
Michel.Telo'-Ai.Se.Eu.Te.Pego.WEB.Live.1080p.Mp4-FZvidS.mp4
General
Format : MPEG-4
Format profile : Base Media / Version 2
Codec ID : mp42
File size : 116 MiB
Duration : 2mn 45s
Overall bit rate : 5 894 Kbps
Encoded date : UTC 2011-11-24 09:37:35
Tagged date : UTC 2011-11-24 09:37:35
gsst : 0
gstd : 165465
gssd : B567F7685HH1326918039852978
gshh :

Video
ID : 1
Format : AVC
Format/Info : Advanced Video Codec
Format profile : High@L4.0
Format settings, CABAC : Yes
Format settings, ReFrames : 1 frame
Codec ID : avc1
Codec ID/Info : Advanced Video Coding
Duration : 2mn 45s
Bit rate mode : Variable
Bit rate : 5 741 Kbps
Maximum bit rate : 12.4 Mbps
Width : 1 920 pixels
Height : 1 080 pixels
Display aspect ratio : 16:9
Frame rate mode : Constant
Frame rate : 24.000 fps
Resolution : 8 bits
Colorimetry : 4:2:0
Scan type : Progressive
Bits/(Pixel*Frame) : 0.115
Stream size : 113 MiB (97%)
Tagged date : UTC 2011-11-24 09:37:36
Audio
ID : 2
Format : AAC
Format/Info : Advanced Audio Codec
Format version : Version 4
Format profile : LC
Format settings, SBR : No
Codec ID : 40
Duration : 2mn 45s
Bit rate mode : Variable
Bit rate : 151 Kbps
Maximum bit rate : 174 Kbps
Channel(s) : 2 channels
Channel positions : L R
Sampling rate : 44.1 KHz
Stream size : 2.97 MiB (3%)
Title : IsoMedia File Produced by Google, 5-11-2011
Encoded date : UTC 2011-11-24 09:37:36
Tagged date : UTC 2011-11-24 09:37:36
 
Michel.Telo'-Ai.Se.Eu.Te.Pego.WEB.Live.1080p.Mp4-FZvidS.mp4 121.868 MB
Michel.Telo'-Ai.Se.Eu.Te.Pego.WEB.Live.1080p.Mp4-FZvidS_s.jpg 1.762 MB
Cover.png 222.573 KB
Gathering some info...

Register and log in Isohunt and see no captcha anymore!

4000 symbols left
Hash 8BD23B54B4F9EDB4F76B0E716D1D4E29A01A34AF

Related torrents for "Michel.Telo-Ai.Se.Eu.Te.Pego.WEB.Live.1080p.Mp4-FZvidS"