imdb
rating

6.2
Dark Shadows

Dark Shadows (2012)

Comedy, Fantasy

Full description
quality   screener x264 hd bd dvdrip dvd

Dark Shadows

Size 1.47 GB   0 seeders     Added 2012-09-02 03:02:00

Stream torrent
Starting‥ You need BitLord! Get it from BitLord.com
To download or stream you need BitLord. Visit them at BitLord.com
[img] image[/img]\r\n\r\nWith: Johnny Depp, Eva Green and Michelle Pfeiffer\r\n\r\n1752. Joshua en Naomi Collins verhuizen met hun zoon Barnabas (Johnny Depp) naar Amerika om een vloek te omzeilen. Twintig jaar later is Barnabas een rijke vrouwenversierder en breekt zo het hart van de heks Angelique Brouchard (Eva Green). Zij verandert hem vervolgens in een vampier en begraaft hem levend. Twee eeuwen later, in 1972, wordt hij echter bevrijd uit zijn graf.\r\n\r\nAn imprisoned vampire, Barnabas Collins, is set free and returns to his ancestral home, where his dysfunctional descendants are in need of his protection. \r\n\r\nhttp://www.imdb.com/title/tt1077368\r\n[COLOR=#3300FF]\r\n------------------------ Dutch Friends ------------------------\r\n---------------------------------------------------------------\r\n- Bezoek ook eens mijn vrienden op:  http://www.Film-Test.nl --\r\n----- voor mijn Nederlandse Sync. ondertitels ---- en meer ----\r\n------- http://www.Film-Test.nl ---- voor Films en meer -------\r\n---------------------------------------------------------------[/COLOR]\r\n\r\nGeneral:\r\n\r\nComplete name                    : Dark Shadows\\Dark Shadows.avi\r\nFormat                           : AVI\r\nFormat/Info                      : Audio Video Interleave\r\nFile size                        : 1.37 GiB\r\nDuration                         : 1h 48mn\r\nOverall bit rate                 : 1 806 Kbps\r\n\r\nVideo:\r\n\r\nFormat                           : MPEG-4 Visual\r\nFormat profile                   : Simple@L3\r\nFormat settings, BVOP            : No\r\nFormat settings, QPel            : No\r\nFormat settings, GMC             : No warppoints\r\nFormat settings, Matrix          : Default (H.263)\r\nCodec ID                         : XVID\r\nCodec ID/Hint                    : XviD\r\nDuration                         : 1h 48mn\r\nBit rate                         : 1 411 Kbps\r\nWidth                            : 704 pixels\r\nHeight                           : 396 pixels\r\nDisplay aspect ratio             : 16:9\r\nFrame rate                       : 25.000 fps\r\nColor space                      : YUV\r\nChroma subsampling               : 4:2:0\r\nBit depth                        : 8 bits\r\nScan type                        : Progressive\r\nCompression mode                 : Lossy\r\nBits/(Pixel*Frame)               : 0.203\r\nStream size                      : 1.07 GiB (78%)\r\nWriting library                  : XviD 1.1.2 (UTC 2006-11-01)\r\n\r\nAudio:\r\n\r\nFormat                           : AC-3\r\nFormat/Info                      : Audio Coding 3\r\nMode extension                   : CM (complete main)\r\nCodec ID                         : 2000\r\nDuration                         : 1h 48mn\r\nBit rate mode                    : Constant\r\nBit rate                         : 384 Kbps\r\nChannel(s)                       : 6 channels\r\nChannel positions                : Front: L C R, Side: L R, LFE\r\nSampling rate                    : 48.0 KHz\r\nBit depth                        : 16 bits\r\nCompression mode                 : Lossy\r\nStream size                      : 298 MiB (21%)\r\nAlignment                        : Aligned on interleaves\r\nInterleave, duration             : 32 ms (0.80 video frame)\r\nInterleave, preload duration     : 288 ms
Dark Shadows.avi 1.469 GB
Cover/Dark Shadows.jpg 196.707 KB
Cover/Dark Shadows Cover.jpg 71.036 KB
Gathering some info...

Register and log in Isohunt and see no captcha anymore!

4000 symbols left
Hash C4A8097D2DC386A77FA7A61F129AB96A79478C9A

Related torrents for "Dark Shadows"